<?xml version="1.0" standalone="no"?>
<!DOCTYPE svg PUBLIC "-//W3C//DTD SVG 1.1//EN" "http://www.w3.org/Graphics/SVG/1.1/DTD/svg11.dtd" >
<svg xmlns="http://www.w3.org/2000/svg" xmlns:xlink="http://www.w3.org/1999/xlink" version="1.1">
<metadata>
Created by FontForge 20170910 at Sat Jul 15 12:16:19 2017
 By Jimmy Wärting
Copyright \(c\) 2015 by Kostas Bartsokas. All rights reserved.
</metadata>
<defs>
<font id="AvertaCY-Regular" horiz-adv-x="586" >
  <font-face 
    font-family="Averta CY"
    font-weight="400"
    font-stretch="normal"
    units-per-em="1000"
    panose-1="0 0 5 0 0 0 0 0 0 0"
    ascent="800"
    descent="-200"
    x-height="487"
    cap-height="710"
    bbox="-680 -257 1396 1041"
    underline-thickness="38"
    underline-position="-83"
    stemh="65"
    stemv="69"
    unicode-range="U+000D-2E18"
  />
<missing-glyph horiz-adv-x="446" 
 />
    <glyph glyph-name=".notdef" horiz-adv-x="446" 
 />
    <glyph glyph-name="space" unicode=" " horiz-adv-x="272" 
 />
    <glyph glyph-name="A" unicode="A" horiz-adv-x="676" 
d="M25 0l269 710h87l270 -710h-91l-64 173h-317l-63 -173h-91zM207 249h262l-131 356h-2z" />
    <glyph glyph-name="Aacute" unicode="&#xc1;" horiz-adv-x="676" 
d="M296 782l112 129h93l-122 -129h-83zM25 0l269 710h87l270 -710h-91l-64 173h-317l-63 -173h-91zM207 249h262l-131 356h-2z" />
    <glyph glyph-name="Abreve" unicode="&#x102;" horiz-adv-x="676" 
d="M338 776c-84 0 -138 52 -144 130h65c2 -36 30 -67 79 -67s77 32 79 67h65c-6 -78 -60 -130 -144 -130zM25 0l269 710h87l270 -710h-91l-64 173h-317l-63 -173h-91zM207 249h262l-131 356h-2z" />
    <glyph glyph-name="uni1EAE" unicode="&#x1eae;" horiz-adv-x="676" 
d="M306 892l96 135h91l-123 -135h-64zM338 773c-89 0 -146 48 -153 119h69c2 -33 32 -61 84 -61s82 29 84 61h69c-7 -71 -64 -119 -153 -119zM25 0l269 710h87l270 -710h-91l-64 173h-317l-63 -173h-91zM207 249h262l-131 356h-2z" />
    <glyph glyph-name="uni1EB6" unicode="&#x1eb6;" horiz-adv-x="676" 
d="M338 776c-84 0 -138 52 -144 130h65c2 -36 30 -67 79 -67s77 32 79 67h65c-6 -78 -60 -130 -144 -130zM25 0l269 710h87l270 -710h-91l-64 173h-317l-63 -173h-91zM207 249h262l-131 356h-2zM339 -94c33 0 59 -26 59 -58s-26 -58 -59 -58s-59 26 -59 58s26 58 59 58z" />
    <glyph glyph-name="uni1EB0" unicode="&#x1eb0;" horiz-adv-x="676" 
d="M313 892l-123 135h92l96 -135h-65zM338 773c-89 0 -146 48 -153 119h69c2 -33 32 -61 84 -61s82 29 84 61h69c-7 -71 -64 -119 -153 -119zM25 0l269 710h87l270 -710h-91l-64 173h-317l-63 -173h-91zM207 249h262l-131 356h-2z" />
    <glyph glyph-name="uni1EB2" unicode="&#x1eb2;" horiz-adv-x="676" 
d="M297 890c34 24 71 47 71 72c0 17 -13 25 -36 25c-27 0 -58 -13 -80 -28l-18 42c22 16 62 36 114 36c45 0 81 -21 81 -67c0 -42 -45 -65 -72 -80h-60zM338 773c-89 0 -146 48 -153 119h69c2 -33 32 -61 84 -61s82 29 84 61h69c-7 -71 -64 -119 -153 -119zM25 0l269 710h87
l270 -710h-91l-64 173h-317l-63 -173h-91zM207 249h262l-131 356h-2z" />
    <glyph glyph-name="uni1EB4" unicode="&#x1eb4;" horiz-adv-x="676" 
d="M414 913c-30 0 -57 15 -82 31c-22 13 -42 24 -60 24c-23 0 -43 -20 -56 -53l-50 21c18 54 51 90 100 90c35 0 60 -15 82 -28c21 -13 39 -27 61 -27c21 0 39 15 52 52l50 -16c-19 -64 -54 -94 -97 -94zM338 773c-89 0 -146 48 -153 119h69c2 -33 32 -61 84 -61
s82 29 84 61h69c-7 -71 -64 -119 -153 -119zM25 0l269 710h87l270 -710h-91l-64 173h-317l-63 -173h-91zM207 249h262l-131 356h-2z" />
    <glyph glyph-name="uni01CD" unicode="&#x1cd;" horiz-adv-x="676" 
d="M293 782l-113 124h82l73 -78h2l75 78h82l-116 -124h-85zM25 0l269 710h87l270 -710h-91l-64 173h-317l-63 -173h-91zM207 249h262l-131 356h-2z" />
    <glyph glyph-name="Acircumflex" unicode="&#xc2;" horiz-adv-x="676" 
d="M180 782l116 124h85l113 -124h-81l-74 78h-2l-74 -78h-83zM25 0l269 710h87l270 -710h-91l-64 173h-317l-63 -173h-91zM207 249h262l-131 356h-2z" />
    <glyph glyph-name="uni1EA4" unicode="&#x1ea4;" horiz-adv-x="676" 
d="M482 839l96 135h91l-123 -135h-64zM180 782l116 124h85l113 -124h-81l-74 78h-2l-74 -78h-83zM25 0l269 710h87l270 -710h-91l-64 173h-317l-63 -173h-91zM207 249h262l-131 356h-2z" />
    <glyph glyph-name="uni1EAC" unicode="&#x1eac;" horiz-adv-x="676" 
d="M180 782l116 124h85l113 -124h-81l-74 78h-2l-74 -78h-83zM25 0l269 710h87l270 -710h-91l-64 173h-317l-63 -173h-91zM207 249h262l-131 356h-2zM339 -94c33 0 59 -26 59 -58s-26 -58 -59 -58s-59 26 -59 58s26 58 59 58z" />
    <glyph glyph-name="uni1EA6" unicode="&#x1ea6;" horiz-adv-x="676" 
d="M526 838l-123 135h91l97 -135h-65zM180 782l116 124h85l113 -124h-81l-74 78h-2l-74 -78h-83zM25 0l269 710h87l270 -710h-91l-64 173h-317l-63 -173h-91zM207 249h262l-131 356h-2z" />
    <glyph glyph-name="uni1EA8" unicode="&#x1ea8;" horiz-adv-x="676" 
d="M485 845c35 25 72 48 72 74c0 17 -14 25 -37 25c-27 0 -59 -14 -81 -29l-19 43c22 16 64 36 117 36c46 0 82 -21 82 -67c0 -43 -45 -67 -74 -82h-60zM180 782l116 124h85l113 -124h-81l-74 78h-2l-74 -78h-83zM25 0l269 710h87l270 -710h-91l-64 173h-317l-63 -173h-91z
M207 249h262l-131 356h-2z" />
    <glyph glyph-name="uni1EAA" unicode="&#x1eaa;" horiz-adv-x="676" 
d="M415 928c-30 0 -57 15 -82 31c-22 13 -42 24 -60 24c-23 0 -43 -20 -56 -53l-50 21c18 54 51 90 100 90c35 0 60 -15 82 -28c21 -13 39 -27 61 -27c21 0 39 15 52 52l50 -16c-19 -64 -54 -94 -97 -94zM180 782l116 124h85l113 -124h-81l-74 78h-2l-74 -78h-83zM25 0
l269 710h87l270 -710h-91l-64 173h-317l-63 -173h-91zM207 249h262l-131 356h-2z" />
    <glyph glyph-name="Adieresis" unicode="&#xc4;" horiz-adv-x="676" 
d="M248 793c-33 0 -58 26 -58 58c0 31 25 56 58 56c32 0 58 -26 58 -57s-26 -57 -58 -57zM429 793c-32 0 -58 26 -58 58c0 31 26 56 58 56s58 -26 58 -57s-26 -57 -58 -57zM25 0l269 710h87l270 -710h-91l-64 173h-317l-63 -173h-91zM207 249h262l-131 356h-2z" />
    <glyph glyph-name="uni1EA0" unicode="&#x1ea0;" horiz-adv-x="676" 
d="M25 0l269 710h87l270 -710h-91l-64 173h-317l-63 -173h-91zM207 249h262l-131 356h-2zM339 -94c33 0 59 -26 59 -58s-26 -58 -59 -58s-59 26 -59 58s26 58 59 58z" />
    <glyph glyph-name="Agrave" unicode="&#xc0;" horiz-adv-x="676" 
d="M304 782l-122 129h92l112 -129h-82zM25 0l269 710h87l270 -710h-91l-64 173h-317l-63 -173h-91zM207 249h262l-131 356h-2z" />
    <glyph glyph-name="uni1EA2" unicode="&#x1ea2;" horiz-adv-x="676" 
d="M306 778c38 27 79 52 79 80c0 19 -15 28 -40 28c-30 0 -65 -15 -89 -32l-20 47c24 18 69 40 127 40c50 0 89 -23 89 -74c0 -47 -49 -73 -80 -89h-66zM25 0l269 710h87l270 -710h-91l-64 173h-317l-63 -173h-91zM207 249h262l-131 356h-2z" />
    <glyph glyph-name="Amacron" unicode="&#x100;" horiz-adv-x="676" 
d="M194 809v67h288v-67h-288zM25 0l269 710h87l270 -710h-91l-64 173h-317l-63 -173h-91zM207 249h262l-131 356h-2z" />
    <glyph glyph-name="Aogonek" unicode="&#x104;" horiz-adv-x="676" 
d="M652 -121l6 -52c-18 -8 -41 -13 -69 -13c-61 0 -99 32 -99 84c0 34 24 75 69 105l-63 170h-317l-63 -173h-91l269 710h87l270 -710h-16c-49 -16 -79 -52 -79 -85c0 -27 16 -45 49 -45c26 0 34 3 47 9zM207 249h262l-131 356h-2z" />
    <glyph glyph-name="Aring" unicode="&#xc5;" horiz-adv-x="676" 
d="M337 760c-51 0 -95 42 -95 94c0 51 41 94 95 94s97 -41 97 -94c0 -50 -41 -94 -97 -94zM337 813c25 0 44 19 44 42s-19 42 -44 42c-23 0 -42 -19 -42 -42c0 -24 19 -42 42 -42zM25 0l269 710h87l270 -710h-91l-64 173h-317l-63 -173h-91zM207 249h262l-131 356h-2z" />
    <glyph glyph-name="Aringacute" unicode="&#x1fa;" horiz-adv-x="676" 
d="M337 760c-51 0 -95 42 -95 94c0 51 41 94 95 94c30 0 57 -13 75 -33l69 49h96l-143 -106v-4c0 -50 -41 -94 -97 -94zM337 897c-23 0 -42 -19 -42 -42c0 -24 19 -42 42 -42c25 0 44 19 44 42s-19 42 -44 42zM381 710l270 -710h-91l-64 173h-317l-63 -173h-91l269 710h87z
M207 249h262l-131 356h-2z" />
    <glyph glyph-name="Atilde" unicode="&#xc3;" horiz-adv-x="676" 
d="M416 782c-31 0 -59 16 -85 33c-23 14 -44 25 -63 25c-24 0 -44 -21 -58 -55l-52 22c19 56 53 94 104 94c36 0 62 -16 85 -30c22 -13 41 -28 64 -28c22 0 40 16 54 55l52 -17c-20 -67 -56 -99 -101 -99zM25 0l269 710h87l270 -710h-91l-64 173h-317l-63 -173h-91zM207 249
h262l-131 356h-2z" />
    <glyph glyph-name="AE" unicode="&#xc6;" horiz-adv-x="928" 
d="M9 0l374 710h486v-79h-349v-238h290v-79h-290v-235h369v-79h-455v173h-243l-92 -173h-90zM229 249h205v384h-2z" />
    <glyph glyph-name="AEacute" unicode="&#x1fc;" horiz-adv-x="928" 
d="M419 782l112 129h93l-122 -129h-83zM9 0l374 710h486v-79h-349v-238h290v-79h-290v-235h369v-79h-455v173h-243l-92 -173h-90zM229 249h205v384h-2z" />
    <glyph glyph-name="B" unicode="B" horiz-adv-x="635" 
d="M88 0v710h232c138 0 229 -52 229 -173c0 -69 -36 -135 -113 -162v-2c83 -17 148 -77 148 -180c0 -113 -76 -193 -237 -193h-259zM175 404h146c73 0 139 30 139 116c0 68 -45 112 -149 112l-136 -1v-227zM175 79h164c93 0 154 39 154 121c0 80 -57 128 -167 128h-151v-249
z" />
    <glyph glyph-name="C" unicode="C" horiz-adv-x="724" 
d="M411 -5c-192 0 -354 126 -354 358c0 201 126 364 353 364c102 0 202 -44 277 -136l-65 -54c-59 73 -132 107 -212 107c-161 0 -262 -118 -262 -281c0 -170 113 -276 263 -276c92 0 162 44 212 107l65 -55c-62 -77 -152 -134 -277 -134z" />
    <glyph glyph-name="Cacute" unicode="&#x106;" horiz-adv-x="724" 
d="M348 782l112 129h93l-122 -129h-83zM411 -5c-192 0 -354 126 -354 358c0 201 126 364 353 364c102 0 202 -44 277 -136l-65 -54c-59 73 -132 107 -212 107c-161 0 -262 -118 -262 -281c0 -170 113 -276 263 -276c92 0 162 44 212 107l65 -55c-62 -77 -152 -134 -277 -134
z" />
    <glyph glyph-name="Ccaron" unicode="&#x10c;" horiz-adv-x="724" 
d="M365 782l-113 124h82l73 -78h2l75 78h82l-116 -124h-85zM411 -5c-192 0 -354 126 -354 358c0 201 126 364 353 364c102 0 202 -44 277 -136l-65 -54c-59 73 -132 107 -212 107c-161 0 -262 -118 -262 -281c0 -170 113 -276 263 -276c92 0 162 44 212 107l65 -55
c-62 -77 -152 -134 -277 -134z" />
    <glyph glyph-name="Ccedilla" unicode="&#xc7;" horiz-adv-x="724" 
d="M412 -5l-12 -26v-2c53 -2 88 -30 88 -79c0 -42 -33 -76 -107 -76c-24 0 -41 3 -56 6v44c12 -4 27 -7 48 -7c28 0 56 11 56 37c0 22 -27 42 -83 42l1 30l15 34c-170 19 -305 143 -305 355c0 201 126 364 353 364c102 0 202 -44 277 -136l-65 -54c-59 73 -132 107 -212 107
c-161 0 -262 -118 -262 -281c0 -170 113 -276 263 -276c92 0 162 44 212 107l65 -55c-62 -77 -152 -134 -276 -134z" />
    <glyph glyph-name="Ccircumflex" unicode="&#x108;" horiz-adv-x="724" 
d="M252 782l116 124h85l113 -124h-81l-74 78h-2l-74 -78h-83zM411 -5c-192 0 -354 126 -354 358c0 201 126 364 353 364c102 0 202 -44 277 -136l-65 -54c-59 73 -132 107 -212 107c-161 0 -262 -118 -262 -281c0 -170 113 -276 263 -276c92 0 162 44 212 107l65 -55
c-62 -77 -152 -134 -277 -134z" />
    <glyph glyph-name="Cdotaccent" unicode="&#x10a;" horiz-adv-x="724" 
d="M410 792c-33 0 -59 26 -59 58s26 58 59 58s59 -26 59 -58s-26 -58 -59 -58zM411 -5c-192 0 -354 126 -354 358c0 201 126 364 353 364c102 0 202 -44 277 -136l-65 -54c-59 73 -132 107 -212 107c-161 0 -262 -118 -262 -281c0 -170 113 -276 263 -276
c92 0 162 44 212 107l65 -55c-62 -77 -152 -134 -277 -134z" />
    <glyph glyph-name="D" unicode="D" horiz-adv-x="726" 
d="M88 0v710h212c225 0 369 -146 369 -356c0 -209 -139 -354 -366 -354h-215zM175 79h123c173 0 281 115 281 275c0 162 -112 277 -278 277h-126v-552z" />
    <glyph glyph-name="Eth" unicode="&#xd0;" horiz-adv-x="726" 
d="M300 710c225 0 369 -146 369 -356c0 -209 -139 -354 -366 -354h-215v316h-68v77h68v317h212zM298 79c173 0 281 115 281 275c0 162 -112 277 -278 277h-126v-238h190v-77h-190v-237h123z" />
    <glyph glyph-name="Dcaron" unicode="&#x10e;" horiz-adv-x="726" 
d="M303 782l-113 124h82l73 -78h2l75 78h82l-116 -124h-85zM88 0v710h212c225 0 369 -146 369 -356c0 -209 -139 -354 -366 -354h-215zM175 79h123c173 0 281 115 281 275c0 162 -112 277 -278 277h-126v-552z" />
    <glyph glyph-name="Dcroat" unicode="&#x110;" horiz-adv-x="726" 
d="M300 710c225 0 369 -146 369 -356c0 -209 -139 -354 -366 -354h-215v316h-68v77h68v317h212zM298 79c173 0 281 115 281 275c0 162 -112 277 -278 277h-126v-238h190v-77h-190v-237h123z" />
    <glyph glyph-name="uni1E0C" unicode="&#x1e0c;" horiz-adv-x="726" 
d="M88 0v710h212c225 0 369 -146 369 -356c0 -209 -139 -354 -366 -354h-215zM175 79h123c173 0 281 115 281 275c0 162 -112 277 -278 277h-126v-552zM342 -94c33 0 59 -26 59 -58s-26 -58 -59 -58s-59 26 -59 58s26 58 59 58z" />
    <glyph glyph-name="uni1E0E" unicode="&#x1e0e;" horiz-adv-x="726" 
d="M88 0v710h212c225 0 369 -146 369 -356c0 -209 -139 -354 -366 -354h-215zM175 79h123c173 0 281 115 281 275c0 162 -112 277 -278 277h-126v-552zM486 -194h-288v69h288v-69z" />
    <glyph glyph-name="E" unicode="E" horiz-adv-x="593" 
d="M88 0v710h435v-79h-348v-238h285v-79h-285v-235h369v-79h-456z" />
    <glyph glyph-name="Eacute" unicode="&#xc9;" horiz-adv-x="593" 
d="M218 782l112 129h93l-122 -129h-83zM88 0v710h435v-79h-348v-238h285v-79h-285v-235h369v-79h-456z" />
    <glyph glyph-name="Ebreve" unicode="&#x114;" horiz-adv-x="593" 
d="M308 776c-84 0 -138 52 -144 130h65c2 -36 30 -67 79 -67s77 32 79 67h65c-6 -78 -60 -130 -144 -130zM88 0v710h435v-79h-348v-238h285v-79h-285v-235h369v-79h-456z" />
    <glyph glyph-name="Ecaron" unicode="&#x11a;" horiz-adv-x="593" 
d="M263 782l-113 124h82l73 -78h2l75 78h82l-116 -124h-85zM88 0v710h435v-79h-348v-238h285v-79h-285v-235h369v-79h-456z" />
    <glyph glyph-name="Ecircumflex" unicode="&#xca;" horiz-adv-x="593" 
d="M150 782l116 124h85l113 -124h-81l-74 78h-2l-74 -78h-83zM88 0v710h435v-79h-348v-238h285v-79h-285v-235h369v-79h-456z" />
    <glyph glyph-name="uni1EBE" unicode="&#x1ebe;" horiz-adv-x="593" 
d="M452 839l96 135h91l-123 -135h-64zM150 782l116 124h85l113 -124h-81l-74 78h-2l-74 -78h-83zM88 0v710h435v-79h-348v-238h285v-79h-285v-235h369v-79h-456z" />
    <glyph glyph-name="uni1EC6" unicode="&#x1ec6;" horiz-adv-x="593" 
d="M150 782l116 124h85l113 -124h-81l-74 78h-2l-74 -78h-83zM88 0v710h435v-79h-348v-238h285v-79h-285v-235h369v-79h-456zM318 -94c33 0 59 -26 59 -58s-26 -58 -59 -58s-59 26 -59 58s26 58 59 58z" />
    <glyph glyph-name="uni1EC0" unicode="&#x1ec0;" horiz-adv-x="593" 
d="M496 838l-123 135h91l97 -135h-65zM150 782l116 124h85l113 -124h-81l-74 78h-2l-74 -78h-83zM88 0v710h435v-79h-348v-238h285v-79h-285v-235h369v-79h-456z" />
    <glyph glyph-name="uni1EC2" unicode="&#x1ec2;" horiz-adv-x="593" 
d="M455 845c35 25 72 48 72 74c0 17 -14 25 -37 25c-27 0 -59 -14 -81 -29l-19 43c22 16 64 36 117 36c46 0 82 -21 82 -67c0 -43 -45 -67 -74 -82h-60zM150 782l116 124h85l113 -124h-81l-74 78h-2l-74 -78h-83zM88 0v710h435v-79h-348v-238h285v-79h-285v-235h369v-79
h-456z" />
    <glyph glyph-name="uni1EC4" unicode="&#x1ec4;" horiz-adv-x="593" 
d="M385 928c-30 0 -57 15 -82 31c-22 13 -42 24 -60 24c-23 0 -43 -20 -56 -53l-50 21c18 54 51 90 100 90c35 0 60 -15 82 -28c21 -13 39 -27 61 -27c21 0 39 15 52 52l50 -16c-19 -64 -54 -94 -97 -94zM150 782l116 124h85l113 -124h-81l-74 78h-2l-74 -78h-83zM88 0v710
h435v-79h-348v-238h285v-79h-285v-235h369v-79h-456z" />
    <glyph glyph-name="Edieresis" unicode="&#xcb;" horiz-adv-x="593" 
d="M218 793c-33 0 -58 26 -58 58c0 31 25 56 58 56c32 0 58 -26 58 -57s-26 -57 -58 -57zM399 793c-32 0 -58 26 -58 58c0 31 26 56 58 56s58 -26 58 -57s-26 -57 -58 -57zM88 0v710h435v-79h-348v-238h285v-79h-285v-235h369v-79h-456z" />
    <glyph glyph-name="Edotaccent" unicode="&#x116;" horiz-adv-x="593" 
d="M308 792c-33 0 -59 26 -59 58s26 58 59 58s59 -26 59 -58s-26 -58 -59 -58zM88 0v710h435v-79h-348v-238h285v-79h-285v-235h369v-79h-456z" />
    <glyph glyph-name="uni1EB8" unicode="&#x1eb8;" horiz-adv-x="593" 
d="M88 0v710h435v-79h-348v-238h285v-79h-285v-235h369v-79h-456zM318 -94c33 0 59 -26 59 -58s-26 -58 -59 -58s-59 26 -59 58s26 58 59 58z" />
    <glyph glyph-name="Egrave" unicode="&#xc8;" horiz-adv-x="593" 
d="M321 782l-122 129h92l112 -129h-82zM88 0v710h435v-79h-348v-238h285v-79h-285v-235h369v-79h-456z" />
    <glyph glyph-name="uni1EBA" unicode="&#x1eba;" horiz-adv-x="593" 
d="M276 778c38 27 79 52 79 80c0 19 -15 28 -40 28c-30 0 -65 -15 -89 -32l-20 47c24 18 69 40 127 40c50 0 89 -23 89 -74c0 -47 -49 -73 -80 -89h-66zM88 0v710h435v-79h-348v-238h285v-79h-285v-235h369v-79h-456z" />
    <glyph glyph-name="Emacron" unicode="&#x112;" horiz-adv-x="593" 
d="M164 809v67h288v-67h-288zM88 0v710h435v-79h-348v-238h285v-79h-285v-235h369v-79h-456z" />
    <glyph glyph-name="Eogonek" unicode="&#x118;" horiz-adv-x="593" 
d="M552 -121l6 -52c-18 -8 -41 -13 -69 -13c-61 0 -99 32 -99 84c0 33 22 72 64 102h-366v710h435v-79h-348v-238h285v-79h-285v-235h369v-79h-9c-49 -16 -79 -52 -79 -85c0 -27 16 -45 49 -45c26 0 34 3 47 9z" />
    <glyph glyph-name="uni1EBC" unicode="&#x1ebc;" horiz-adv-x="593" 
d="M386 782c-31 0 -59 16 -85 33c-23 14 -44 25 -63 25c-24 0 -44 -21 -58 -55l-52 22c19 56 53 94 104 94c36 0 62 -16 85 -30c22 -13 41 -28 64 -28c22 0 40 16 54 55l52 -17c-20 -67 -56 -99 -101 -99zM88 0v710h435v-79h-348v-238h285v-79h-285v-235h369v-79h-456z" />
    <glyph glyph-name="F" unicode="F" horiz-adv-x="579" 
d="M88 0v710h453v-79h-366v-250h310v-79h-310v-302h-87z" />
    <glyph glyph-name="G" unicode="G" horiz-adv-x="759" 
d="M412 -5c-204 0 -355 139 -355 359c0 211 138 363 352 363c97 0 195 -33 270 -111l-61 -54c-57 55 -127 82 -210 82c-149 0 -260 -110 -260 -280c0 -161 105 -279 264 -279c71 0 136 19 189 59v153h-206v79h293v-281c-66 -56 -167 -90 -276 -90z" />
    <glyph glyph-name="Gbreve" unicode="&#x11e;" horiz-adv-x="759" 
d="M405 776c-84 0 -138 52 -144 130h65c2 -36 30 -67 79 -67s77 32 79 67h65c-6 -78 -60 -130 -144 -130zM412 -5c-204 0 -355 139 -355 359c0 211 138 363 352 363c97 0 195 -33 270 -111l-61 -54c-57 55 -127 82 -210 82c-149 0 -260 -110 -260 -280
c0 -161 105 -279 264 -279c71 0 136 19 189 59v153h-206v79h293v-281c-66 -56 -167 -90 -276 -90z" />
    <glyph glyph-name="Gcaron" unicode="&#x1e6;" horiz-adv-x="759" 
d="M360 782l-113 124h82l73 -78h2l75 78h82l-116 -124h-85zM412 -5c-204 0 -355 139 -355 359c0 211 138 363 352 363c97 0 195 -33 270 -111l-61 -54c-57 55 -127 82 -210 82c-149 0 -260 -110 -260 -280c0 -161 105 -279 264 -279c71 0 136 19 189 59v153h-206v79h293
v-281c-66 -56 -167 -90 -276 -90z" />
    <glyph glyph-name="Gcircumflex" unicode="&#x11c;" horiz-adv-x="759" 
d="M247 782l116 124h85l113 -124h-81l-74 78h-2l-74 -78h-83zM412 -5c-204 0 -355 139 -355 359c0 211 138 363 352 363c97 0 195 -33 270 -111l-61 -54c-57 55 -127 82 -210 82c-149 0 -260 -110 -260 -280c0 -161 105 -279 264 -279c71 0 136 19 189 59v153h-206v79h293
v-281c-66 -56 -167 -90 -276 -90z" />
    <glyph glyph-name="Gcommaaccent" unicode="&#x122;" horiz-adv-x="759" 
d="M412 -5c-204 0 -355 139 -355 359c0 211 138 363 352 363c97 0 195 -33 270 -111l-61 -54c-57 55 -127 82 -210 82c-149 0 -260 -110 -260 -280c0 -161 105 -279 264 -279c71 0 136 19 189 59v153h-206v79h293v-281c-66 -56 -167 -90 -276 -90zM333 -212l-20 49
c46 10 59 31 59 64c0 16 -2 28 -5 45h74c3 -15 4 -31 4 -49c0 -66 -46 -103 -112 -109z" />
    <glyph glyph-name="Gdotaccent" unicode="&#x120;" horiz-adv-x="759" 
d="M405 792c-33 0 -59 26 -59 58s26 58 59 58s59 -26 59 -58s-26 -58 -59 -58zM412 -5c-204 0 -355 139 -355 359c0 211 138 363 352 363c97 0 195 -33 270 -111l-61 -54c-57 55 -127 82 -210 82c-149 0 -260 -110 -260 -280c0 -161 105 -279 264 -279c71 0 136 19 189 59
v153h-206v79h293v-281c-66 -56 -167 -90 -276 -90z" />
    <glyph glyph-name="uni1E20" unicode="&#x1e20;" horiz-adv-x="759" 
d="M261 809v67h288v-67h-288zM412 -5c-204 0 -355 139 -355 359c0 211 138 363 352 363c97 0 195 -33 270 -111l-61 -54c-57 55 -127 82 -210 82c-149 0 -260 -110 -260 -280c0 -161 105 -279 264 -279c71 0 136 19 189 59v153h-206v79h293v-281c-66 -56 -167 -90 -276 -90z
" />
    <glyph glyph-name="H" unicode="H" horiz-adv-x="721" 
d="M88 0v710h87v-333h371v333h87v-710h-87v298h-371v-298h-87z" />
    <glyph glyph-name="Hbar" unicode="&#x126;" horiz-adv-x="722" 
d="M694 586v-61h-60v-525h-87v298h-371v-298h-87v525h-63v61h63v124h87v-124h371v124h87v-124h60zM547 377v148h-371v-148h371z" />
    <glyph glyph-name="uni1E2A" unicode="&#x1e2a;" horiz-adv-x="721" 
d="M88 0v710h87v-333h371v333h87v-710h-87v298h-371v-298h-87zM362 -220c-84 0 -138 53 -144 142h65c2 -42 30 -78 79 -78c48 0 77 36 79 78h65c-6 -89 -60 -142 -144 -142z" />
    <glyph glyph-name="Hcircumflex" unicode="&#x124;" horiz-adv-x="721" 
d="M204 782l116 124h85l113 -124h-81l-74 78h-2l-74 -78h-83zM88 0v710h87v-333h371v333h87v-710h-87v298h-371v-298h-87z" />
    <glyph glyph-name="uni1E24" unicode="&#x1e24;" horiz-adv-x="721" 
d="M88 0v710h87v-333h371v333h87v-710h-87v298h-371v-298h-87zM362 -94c33 0 59 -26 59 -58s-26 -58 -59 -58s-59 26 -59 58s26 58 59 58z" />
    <glyph glyph-name="I" unicode="I" horiz-adv-x="273" 
d="M93 0v710h87v-710h-87z" />
    <glyph glyph-name="IJ" unicode="&#x132;" horiz-adv-x="766" 
d="M93 0v710h87v-710h-87zM490 -5c-64 0 -139 30 -188 91l50 64c35 -40 84 -72 134 -72c69 0 116 40 116 155v477h88v-479c0 -153 -61 -236 -200 -236z" />
    <glyph glyph-name="Iacute" unicode="&#xcd;" horiz-adv-x="273" 
d="M95 782l112 129h93l-122 -129h-83zM93 0v710h87v-710h-87z" />
    <glyph glyph-name="Ibreve" unicode="&#x12c;" horiz-adv-x="273" 
d="M136 776c-84 0 -138 52 -144 130h65c2 -36 30 -67 79 -67s77 32 79 67h65c-6 -78 -60 -130 -144 -130zM93 0v710h87v-710h-87z" />
    <glyph glyph-name="uni01CF" unicode="&#x1cf;" horiz-adv-x="273" 
d="M91 782l-113 124h82l73 -78h2l75 78h82l-116 -124h-85zM93 0v710h87v-710h-87z" />
    <glyph glyph-name="Icircumflex" unicode="&#xce;" horiz-adv-x="273" 
d="M-22 782l116 124h85l113 -124h-81l-74 78h-2l-74 -78h-83zM93 0v710h87v-710h-87z" />
    <glyph glyph-name="Idieresis" unicode="&#xcf;" horiz-adv-x="273" 
d="M46 793c-33 0 -58 26 -58 58c0 31 25 56 58 56c32 0 58 -26 58 -57s-26 -57 -58 -57zM227 793c-32 0 -58 26 -58 58c0 31 26 56 58 56s58 -26 58 -57s-26 -57 -58 -57zM93 0v710h87v-710h-87z" />
    <glyph glyph-name="Idotaccent" unicode="&#x130;" horiz-adv-x="273" 
d="M136 792c-33 0 -59 26 -59 58s26 58 59 58s59 -26 59 -58s-26 -58 -59 -58zM93 0v710h87v-710h-87z" />
    <glyph glyph-name="uni1ECA" unicode="&#x1eca;" horiz-adv-x="273" 
d="M93 0v710h87v-710h-87zM138 -94c33 0 59 -26 59 -58s-26 -58 -59 -58s-59 26 -59 58s26 58 59 58z" />
    <glyph glyph-name="Igrave" unicode="&#xcc;" horiz-adv-x="273" 
d="M97 782l-122 129h92l112 -129h-82zM93 0v710h87v-710h-87z" />
    <glyph glyph-name="uni1EC8" unicode="&#x1ec8;" horiz-adv-x="273" 
d="M104 778c38 27 79 52 79 80c0 19 -15 28 -40 28c-30 0 -65 -15 -89 -32l-20 47c24 18 69 40 127 40c50 0 89 -23 89 -74c0 -47 -49 -73 -80 -89h-66zM93 0v710h87v-710h-87z" />
    <glyph glyph-name="Imacron" unicode="&#x12a;" horiz-adv-x="273" 
d="M-8 809v67h288v-67h-288zM93 0v710h87v-710h-87z" />
    <glyph glyph-name="Iogonek" unicode="&#x12e;" horiz-adv-x="273" 
d="M184 -121l6 -52c-18 -8 -41 -13 -69 -13c-61 0 -99 32 -99 84c0 34 24 77 71 107v705h87v-710h-13c-49 -16 -79 -52 -79 -85c0 -27 16 -45 49 -45c26 0 34 3 47 9z" />
    <glyph glyph-name="Itilde" unicode="&#x128;" horiz-adv-x="273" 
d="M214 782c-31 0 -59 16 -85 33c-23 14 -44 25 -63 25c-24 0 -44 -21 -58 -55l-52 22c19 56 53 94 104 94c36 0 62 -16 85 -30c22 -13 41 -28 64 -28c22 0 40 16 54 55l52 -17c-20 -67 -56 -99 -101 -99zM93 0v710h87v-710h-87z" />
    <glyph glyph-name="J" unicode="J" horiz-adv-x="493" 
d="M217 -5c-64 0 -139 30 -188 91l50 64c35 -40 84 -72 134 -72c69 0 116 40 116 155v477h88v-479c0 -153 -61 -236 -200 -236z" />
    <glyph glyph-name="uni00A40301" horiz-adv-x="493" 
d="M331 782l112 129h93l-122 -129h-83zM217 -5c-64 0 -139 30 -188 91l50 64c35 -40 84 -72 134 -72c69 0 116 40 116 155v477h88v-479c0 -153 -61 -236 -200 -236z" />
    <glyph glyph-name="Jcircumflex" unicode="&#x134;" horiz-adv-x="493" 
d="M215 782l116 124h85l113 -124h-81l-74 78h-2l-74 -78h-83zM217 -5c-64 0 -139 30 -188 91l50 64c35 -40 84 -72 134 -72c69 0 116 40 116 155v477h88v-479c0 -153 -61 -236 -200 -236z" />
    <glyph glyph-name="K" unicode="K" horiz-adv-x="646" 
d="M88 0v710h87v-389h2l322 389h112l-275 -324l282 -386h-109l-231 318l-103 -121v-197h-87z" />
    <glyph glyph-name="Kcommaaccent" unicode="&#x136;" horiz-adv-x="646" 
d="M88 0v710h87v-389h2l322 389h112l-275 -324l282 -386h-109l-231 318l-103 -121v-197h-87zM257 -212l-20 49c46 10 59 31 59 64c0 16 -2 28 -5 45h74c3 -15 4 -31 4 -49c0 -66 -46 -103 -112 -109z" />
    <glyph glyph-name="L" unicode="L" horiz-adv-x="557" 
d="M88 0v710h87v-631h351v-79h-438z" />
    <glyph glyph-name="Lacute" unicode="&#x139;" horiz-adv-x="557" 
d="M191 782l112 129h93l-122 -129h-83zM88 0v710h87v-631h351v-79h-438z" />
    <glyph glyph-name="Lcaron" unicode="&#x13d;" horiz-adv-x="557" 
d="M304 587l29 184h80l-49 -184h-60zM88 0v710h87v-631h351v-79h-438z" />
    <glyph glyph-name="Lcommaaccent" unicode="&#x13b;" horiz-adv-x="557" 
d="M88 0v710h87v-631h351v-79h-438zM227 -212l-20 49c46 10 59 31 59 64c0 16 -2 28 -5 45h74c3 -15 4 -31 4 -49c0 -66 -46 -103 -112 -109z" />
    <glyph glyph-name="Ldot" unicode="&#x13f;" horiz-adv-x="557" 
d="M88 0v710h87v-631h351v-79h-438zM416 280c-33 0 -60 26 -60 59s27 59 60 59s59 -26 59 -59s-26 -59 -59 -59z" />
    <glyph glyph-name="uni1E36" unicode="&#x1e36;" horiz-adv-x="557" 
d="M88 0v710h87v-631h351v-79h-438zM305 -94c33 0 59 -26 59 -58s-26 -58 -59 -58s-59 26 -59 58s26 58 59 58z" />
    <glyph glyph-name="uni1E38" unicode="&#x1e38;" horiz-adv-x="557" 
d="M137 809v67h288v-67h-288zM88 0v710h87v-631h351v-79h-438zM305 -94c33 0 59 -26 59 -58s-26 -58 -59 -58s-59 26 -59 58s26 58 59 58z" />
    <glyph glyph-name="uni1E3A" unicode="&#x1e3a;" horiz-adv-x="557" 
d="M88 0v710h87v-631h351v-79h-438zM449 -194h-288v69h288v-69z" />
    <glyph glyph-name="Lslash" unicode="&#x141;" horiz-adv-x="572" 
d="M189 79h351v-79h-438v281l-80 -34v73l80 35v355h87v-318l119 52v-74l-119 -51v-240z" />
    <glyph glyph-name="M" unicode="M" horiz-adv-x="875" 
d="M88 0v710h88l261 -459h2l261 459h87v-710h-87v541h-2l-231 -398h-59l-231 398h-1v-541h-88z" />
    <glyph glyph-name="uni1E42" unicode="&#x1e42;" horiz-adv-x="875" 
d="M88 0v710h88l261 -459h2l261 459h87v-710h-87v541h-2l-231 -398h-59l-231 398h-1v-541h-88zM437 -94c33 0 59 -26 59 -58s-26 -58 -59 -58s-59 26 -59 58s26 58 59 58z" />
    <glyph glyph-name="N" unicode="N" horiz-adv-x="751" 
d="M88 0v710h86l401 -565h1v565h87v-710h-89l-397 559h-2v-559h-87z" />
    <glyph glyph-name="Nacute" unicode="&#x143;" horiz-adv-x="751" 
d="M285 782l112 129h93l-122 -129h-83zM88 0v710h86l401 -565h1v565h87v-710h-89l-397 559h-2v-559h-87z" />
    <glyph glyph-name="Ncaron" unicode="&#x147;" horiz-adv-x="751" 
d="M330 782l-113 124h82l73 -78h2l75 78h82l-116 -124h-85zM88 0v710h86l401 -565h1v565h87v-710h-89l-397 559h-2v-559h-87z" />
    <glyph glyph-name="Ncommaaccent" unicode="&#x145;" horiz-adv-x="751" 
d="M88 0v710h86l401 -565h1v565h87v-710h-89l-397 559h-2v-559h-87zM302 -212l-20 49c46 10 59 31 59 64c0 16 -2 28 -5 45h74c3 -15 4 -31 4 -49c0 -66 -46 -103 -112 -109z" />
    <glyph glyph-name="uni1E44" unicode="&#x1e44;" horiz-adv-x="751" 
d="M375 792c-33 0 -59 26 -59 58s26 58 59 58s59 -26 59 -58s-26 -58 -59 -58zM88 0v710h86l401 -565h1v565h87v-710h-89l-397 559h-2v-559h-87z" />
    <glyph glyph-name="uni1E46" unicode="&#x1e46;" horiz-adv-x="751" 
d="M88 0v710h86l401 -565h1v565h87v-710h-89l-397 559h-2v-559h-87zM380 -94c33 0 59 -26 59 -58s-26 -58 -59 -58s-59 26 -59 58s26 58 59 58z" />
    <glyph glyph-name="Eng" unicode="&#x14a;" horiz-adv-x="751" 
d="M576 710h87v-721c0 -148 -79 -193 -180 -193c-32 0 -54 4 -82 14l6 73c18 -9 44 -13 63 -13c72 0 106 41 106 116v13l-399 559h-2v-558h-87v710h85l401 -566l2 1v565z" />
    <glyph glyph-name="uni019D" unicode="&#x19d;" horiz-adv-x="751" 
d="M576 710h87v-710h-89l-397 559h-2v-596c0 -122 -53 -167 -131 -167c-21 0 -50 4 -78 14l6 73c20 -9 38 -12 53 -12c41 0 63 26 63 76v763h87v-1l400 -564h1v565z" />
    <glyph glyph-name="uni1E48" unicode="&#x1e48;" horiz-adv-x="751" 
d="M88 0v710h86l401 -565h1v565h87v-710h-89l-397 559h-2v-559h-87zM524 -194h-288v69h288v-69z" />
    <glyph glyph-name="Ntilde" unicode="&#xd1;" horiz-adv-x="751" 
d="M453 782c-31 0 -59 16 -85 33c-23 14 -44 25 -63 25c-24 0 -44 -21 -58 -55l-52 22c19 56 53 94 104 94c36 0 62 -16 85 -30c22 -13 41 -28 64 -28c22 0 40 16 54 55l52 -17c-20 -67 -56 -99 -101 -99zM88 0v710h86l401 -565h1v565h87v-710h-89l-397 559h-2v-559h-87z
" />
    <glyph glyph-name="O" unicode="O" horiz-adv-x="825" 
d="M414 -6c-207 0 -357 150 -357 361s150 362 357 362c199 0 354 -145 354 -362c0 -216 -155 -361 -354 -361zM414 76c147 0 263 115 263 279c0 165 -116 280 -263 280c-154 0 -266 -119 -266 -280c0 -160 112 -279 266 -279z" />
    <glyph glyph-name="Oacute" unicode="&#xd3;" horiz-adv-x="825" 
d="M362 782l112 129h93l-122 -129h-83zM414 -6c-207 0 -357 150 -357 361s150 362 357 362c199 0 354 -145 354 -362c0 -216 -155 -361 -354 -361zM414 76c147 0 263 115 263 279c0 165 -116 280 -263 280c-154 0 -266 -119 -266 -280c0 -160 112 -279 266 -279z" />
    <glyph glyph-name="Obreve" unicode="&#x14e;" horiz-adv-x="825" 
d="M414 776c-84 0 -138 52 -144 130h65c2 -36 30 -67 79 -67s77 32 79 67h65c-6 -78 -60 -130 -144 -130zM414 -6c-207 0 -357 150 -357 361s150 362 357 362c199 0 354 -145 354 -362c0 -216 -155 -361 -354 -361zM414 76c147 0 263 115 263 279c0 165 -116 280 -263 280
c-154 0 -266 -119 -266 -280c0 -160 112 -279 266 -279z" />
    <glyph glyph-name="uni01D1" unicode="&#x1d1;" horiz-adv-x="825" 
d="M369 782l-113 124h82l73 -78h2l75 78h82l-116 -124h-85zM414 -6c-207 0 -357 150 -357 361s150 362 357 362c199 0 354 -145 354 -362c0 -216 -155 -361 -354 -361zM414 76c147 0 263 115 263 279c0 165 -116 280 -263 280c-154 0 -266 -119 -266 -280
c0 -160 112 -279 266 -279z" />
    <glyph glyph-name="Ocircumflex" unicode="&#xd4;" horiz-adv-x="825" 
d="M256 782l116 124h85l113 -124h-81l-74 78h-2l-74 -78h-83zM414 -6c-207 0 -357 150 -357 361s150 362 357 362c199 0 354 -145 354 -362c0 -216 -155 -361 -354 -361zM414 76c147 0 263 115 263 279c0 165 -116 280 -263 280c-154 0 -266 -119 -266 -280
c0 -160 112 -279 266 -279z" />
    <glyph glyph-name="uni1ED0" unicode="&#x1ed0;" horiz-adv-x="825" 
d="M558 839l96 135h91l-123 -135h-64zM256 782l116 124h85l113 -124h-81l-74 78h-2l-74 -78h-83zM414 -6c-207 0 -357 150 -357 361s150 362 357 362c199 0 354 -145 354 -362c0 -216 -155 -361 -354 -361zM414 76c147 0 263 115 263 279c0 165 -116 280 -263 280
c-154 0 -266 -119 -266 -280c0 -160 112 -279 266 -279z" />
    <glyph glyph-name="uni1ED8" unicode="&#x1ed8;" horiz-adv-x="825" 
d="M256 782l116 124h85l113 -124h-81l-74 78h-2l-74 -78h-83zM414 -6c-207 0 -357 150 -357 361s150 362 357 362c199 0 354 -145 354 -362c0 -216 -155 -361 -354 -361zM414 76c147 0 263 115 263 279c0 165 -116 280 -263 280c-154 0 -266 -119 -266 -280
c0 -160 112 -279 266 -279zM413 -94c33 0 59 -26 59 -58s-26 -58 -59 -58s-59 26 -59 58s26 58 59 58z" />
    <glyph glyph-name="uni1ED2" unicode="&#x1ed2;" horiz-adv-x="825" 
d="M602 838l-123 135h91l97 -135h-65zM256 782l116 124h85l113 -124h-81l-74 78h-2l-74 -78h-83zM414 -6c-207 0 -357 150 -357 361s150 362 357 362c199 0 354 -145 354 -362c0 -216 -155 -361 -354 -361zM414 76c147 0 263 115 263 279c0 165 -116 280 -263 280
c-154 0 -266 -119 -266 -280c0 -160 112 -279 266 -279z" />
    <glyph glyph-name="uni1ED4" unicode="&#x1ed4;" horiz-adv-x="825" 
d="M561 845c35 25 72 48 72 74c0 17 -14 25 -37 25c-27 0 -59 -14 -81 -29l-19 43c22 16 64 36 117 36c46 0 82 -21 82 -67c0 -43 -45 -67 -74 -82h-60zM256 782l116 124h85l113 -124h-81l-74 78h-2l-74 -78h-83zM414 -6c-207 0 -357 150 -357 361s150 362 357 362
c199 0 354 -145 354 -362c0 -216 -155 -361 -354 -361zM414 76c147 0 263 115 263 279c0 165 -116 280 -263 280c-154 0 -266 -119 -266 -280c0 -160 112 -279 266 -279z" />
    <glyph glyph-name="uni1ED6" unicode="&#x1ed6;" horiz-adv-x="825" 
d="M491 928c-30 0 -57 15 -82 31c-22 13 -42 24 -60 24c-23 0 -43 -20 -56 -53l-50 21c18 54 51 90 100 90c35 0 60 -15 82 -28c21 -13 39 -27 61 -27c21 0 39 15 52 52l50 -16c-19 -64 -54 -94 -97 -94zM256 782l116 124h85l113 -124h-81l-74 78h-2l-74 -78h-83zM414 -6
c-207 0 -357 150 -357 361s150 362 357 362c199 0 354 -145 354 -362c0 -216 -155 -361 -354 -361zM414 76c147 0 263 115 263 279c0 165 -116 280 -263 280c-154 0 -266 -119 -266 -280c0 -160 112 -279 266 -279z" />
    <glyph glyph-name="Odieresis" unicode="&#xd6;" horiz-adv-x="825" 
d="M324 793c-33 0 -58 26 -58 58c0 31 25 56 58 56c32 0 58 -26 58 -57s-26 -57 -58 -57zM505 793c-32 0 -58 26 -58 58c0 31 26 56 58 56s58 -26 58 -57s-26 -57 -58 -57zM414 -6c-207 0 -357 150 -357 361s150 362 357 362c199 0 354 -145 354 -362
c0 -216 -155 -361 -354 -361zM414 76c147 0 263 115 263 279c0 165 -116 280 -263 280c-154 0 -266 -119 -266 -280c0 -160 112 -279 266 -279z" />
    <glyph glyph-name="uni1ECC" unicode="&#x1ecc;" horiz-adv-x="825" 
d="M414 -6c-207 0 -357 150 -357 361s150 362 357 362c199 0 354 -145 354 -362c0 -216 -155 -361 -354 -361zM414 76c147 0 263 115 263 279c0 165 -116 280 -263 280c-154 0 -266 -119 -266 -280c0 -160 112 -279 266 -279zM413 -94c33 0 59 -26 59 -58s-26 -58 -59 -58
s-59 26 -59 58s26 58 59 58z" />
    <glyph glyph-name="Ograve" unicode="&#xd2;" horiz-adv-x="825" 
d="M384 782l-122 129h92l112 -129h-82zM414 -6c-207 0 -357 150 -357 361s150 362 357 362c199 0 354 -145 354 -362c0 -216 -155 -361 -354 -361zM414 76c147 0 263 115 263 279c0 165 -116 280 -263 280c-154 0 -266 -119 -266 -280c0 -160 112 -279 266 -279z" />
    <glyph glyph-name="uni1ECE" unicode="&#x1ece;" horiz-adv-x="825" 
d="M382 778c38 27 79 52 79 80c0 19 -15 28 -40 28c-30 0 -65 -15 -89 -32l-20 47c24 18 69 40 127 40c50 0 89 -23 89 -74c0 -47 -49 -73 -80 -89h-66zM414 -6c-207 0 -357 150 -357 361s150 362 357 362c199 0 354 -145 354 -362c0 -216 -155 -361 -354 -361zM414 76
c147 0 263 115 263 279c0 165 -116 280 -263 280c-154 0 -266 -119 -266 -280c0 -160 112 -279 266 -279z" />
    <glyph glyph-name="Ohorn" unicode="&#x1a0;" horiz-adv-x="867" 
d="M751 774h83v-73c0 -94 -37 -152 -106 -171c26 -50 40 -109 40 -175c0 -216 -155 -361 -354 -361c-207 0 -357 150 -357 361s150 362 357 362c116 0 218 -50 282 -134c47 13 55 54 55 122v69zM414 76c147 0 263 115 263 279c0 165 -116 280 -263 280
c-154 0 -266 -119 -266 -280c0 -160 112 -279 266 -279z" />
    <glyph glyph-name="uni1EDA" unicode="&#x1eda;" horiz-adv-x="867" 
d="M567 911l-122 -129h-83l112 129h93zM751 774h83v-73c0 -94 -37 -152 -106 -171c26 -50 40 -109 40 -175c0 -216 -155 -361 -354 -361c-207 0 -357 150 -357 361s150 362 357 362c116 0 218 -50 282 -134c47 13 55 54 55 122v69zM414 76c147 0 263 115 263 279
c0 165 -116 280 -263 280c-154 0 -266 -119 -266 -280c0 -160 112 -279 266 -279z" />
    <glyph glyph-name="uni1EE2" unicode="&#x1ee2;" horiz-adv-x="867" 
d="M751 774h83v-73c0 -94 -37 -152 -106 -171c26 -50 40 -109 40 -175c0 -216 -155 -361 -354 -361c-207 0 -357 150 -357 361s150 362 357 362c116 0 218 -50 282 -134c47 13 55 54 55 122v69zM414 76c147 0 263 115 263 279c0 165 -116 280 -263 280
c-154 0 -266 -119 -266 -280c0 -160 112 -279 266 -279zM413 -94c33 0 59 -26 59 -58s-26 -58 -59 -58s-59 26 -59 58s26 58 59 58z" />
    <glyph glyph-name="uni1EDC" unicode="&#x1edc;" horiz-adv-x="867" 
d="M466 782h-82l-122 129h92zM751 774h83v-73c0 -94 -37 -152 -106 -171c26 -50 40 -109 40 -175c0 -216 -155 -361 -354 -361c-207 0 -357 150 -357 361s150 362 357 362c116 0 218 -50 282 -134c47 13 55 54 55 122v69zM414 76c147 0 263 115 263 279
c0 165 -116 280 -263 280c-154 0 -266 -119 -266 -280c0 -160 112 -279 266 -279z" />
    <glyph glyph-name="uni1EDE" unicode="&#x1ede;" horiz-adv-x="867" 
d="M421 886c-30 0 -65 -15 -89 -32l-20 47c24 18 69 40 127 40c50 0 89 -23 89 -74c0 -47 -49 -73 -80 -89h-66c38 27 79 52 79 80c0 19 -15 28 -40 28zM751 774h83v-73c0 -94 -37 -152 -106 -171c26 -50 40 -109 40 -175c0 -216 -155 -361 -354 -361
c-207 0 -357 150 -357 361s150 362 357 362c116 0 218 -50 282 -134c47 13 55 54 55 122v69zM414 76c147 0 263 115 263 279c0 165 -116 280 -263 280c-154 0 -266 -119 -266 -280c0 -160 112 -279 266 -279z" />
    <glyph glyph-name="uni1EE0" unicode="&#x1ee0;" horiz-adv-x="867" 
d="M344 840c-24 0 -44 -21 -58 -55l-52 22c19 56 53 94 104 94c36 0 62 -16 85 -30c22 -13 41 -28 64 -28c22 0 40 16 54 55l52 -17c-20 -67 -56 -99 -101 -99c-31 0 -59 16 -85 33c-23 14 -44 25 -63 25zM751 774h83v-73c0 -94 -37 -152 -106 -171c26 -50 40 -109 40 -175
c0 -216 -155 -361 -354 -361c-207 0 -357 150 -357 361s150 362 357 362c116 0 218 -50 282 -134c47 13 55 54 55 122v69zM414 76c147 0 263 115 263 279c0 165 -116 280 -263 280c-154 0 -266 -119 -266 -280c0 -160 112 -279 266 -279z" />
    <glyph glyph-name="Ohungarumlaut" unicode="&#x150;" horiz-adv-x="825" 
d="M290 781l118 141l85 1l-124 -142h-79zM458 781l117 141l85 1l-124 -142h-78zM414 -6c-207 0 -357 150 -357 361s150 362 357 362c199 0 354 -145 354 -362c0 -216 -155 -361 -354 -361zM414 76c147 0 263 115 263 279c0 165 -116 280 -263 280
c-154 0 -266 -119 -266 -280c0 -160 112 -279 266 -279z" />
    <glyph glyph-name="Omacron" unicode="&#x14c;" horiz-adv-x="825" 
d="M270 809v67h288v-67h-288zM414 -6c-207 0 -357 150 -357 361s150 362 357 362c199 0 354 -145 354 -362c0 -216 -155 -361 -354 -361zM414 76c147 0 263 115 263 279c0 165 -116 280 -263 280c-154 0 -266 -119 -266 -280c0 -160 112 -279 266 -279z" />
    <glyph glyph-name="uni01EA" unicode="&#x1ea;" horiz-adv-x="825" 
d="M464 -3c-44 -17 -71 -51 -71 -82c0 -27 16 -45 49 -45c26 0 34 3 47 9l6 -52c-18 -8 -41 -13 -69 -13c-61 0 -99 32 -99 84c0 30 19 67 56 96v1c-191 14 -326 160 -326 360c0 211 150 362 357 362c199 0 354 -145 354 -362c0 -198 -130 -336 -304 -358zM148 355
c0 -160 112 -279 266 -279c147 0 263 115 263 279c0 165 -116 280 -263 280c-154 0 -266 -119 -266 -280z" />
    <glyph glyph-name="Oslash" unicode="&#xd8;" horiz-adv-x="825" 
d="M772 684l-84 -91c50 -61 80 -143 80 -238c0 -216 -155 -361 -354 -361c-84 0 -159 25 -218 68l-81 -88l-51 47l81 88c-55 63 -88 148 -88 246c0 211 150 362 357 362c86 0 165 -27 225 -76l82 88zM148 355c0 -70 22 -132 59 -180l373 402c-45 37 -103 58 -166 58
c-154 0 -266 -119 -266 -280zM677 355c0 67 -19 125 -51 171l-370 -400c43 -32 97 -50 158 -50c147 0 263 115 263 279z" />
    <glyph glyph-name="Oslashacute" unicode="&#x1fe;" horiz-adv-x="825" 
d="M565 911l-122 -129h-83l112 129h93zM772 684l-84 -91c50 -61 80 -143 80 -238c0 -216 -155 -361 -354 -361c-84 0 -159 25 -218 68l-81 -88l-51 47l81 88c-55 63 -88 148 -88 246c0 211 150 362 357 362c86 0 165 -27 225 -76l82 88zM148 355c0 -70 22 -132 59 -180
l373 402c-45 37 -103 58 -166 58c-154 0 -266 -119 -266 -280zM677 355c0 67 -19 125 -51 171l-370 -400c43 -32 97 -50 158 -50c147 0 263 115 263 279z" />
    <glyph glyph-name="Otilde" unicode="&#xd5;" horiz-adv-x="825" 
d="M492 782c-31 0 -59 16 -85 33c-23 14 -44 25 -63 25c-24 0 -44 -21 -58 -55l-52 22c19 56 53 94 104 94c36 0 62 -16 85 -30c22 -13 41 -28 64 -28c22 0 40 16 54 55l52 -17c-20 -67 -56 -99 -101 -99zM414 -6c-207 0 -357 150 -357 361s150 362 357 362
c199 0 354 -145 354 -362c0 -216 -155 -361 -354 -361zM414 76c147 0 263 115 263 279c0 165 -116 280 -263 280c-154 0 -266 -119 -266 -280c0 -160 112 -279 266 -279z" />
    <glyph glyph-name="OE" unicode="&#x152;" horiz-adv-x="954" 
d="M535 79h370v-79h-489c-214 0 -359 158 -359 356c0 199 145 355 359 354h469v-79h-350v-239h291v-79h-291v-234zM416 81l36 1v547h-36c-150 1 -268 -114 -268 -273s118 -275 268 -275z" />
    <glyph glyph-name="P" unicode="P" horiz-adv-x="613" 
d="M88 0v710h248c166 0 235 -94 235 -220c0 -150 -102 -219 -250 -219h-146v-271h-87zM175 350h138c118 0 168 60 168 142c0 91 -59 139 -154 139h-152v-281z" />
    <glyph glyph-name="Thorn" unicode="&#xde;" horiz-adv-x="632" 
d="M88 0v710h87v-140h181c166 0 234 -94 234 -220c0 -149 -102 -217 -250 -217h-165v-133h-87zM175 211h159c116 0 166 61 166 141c0 91 -58 139 -154 139h-171v-280z" />
    <glyph glyph-name="Q" unicode="Q" horiz-adv-x="842" 
d="M785 47l-50 -62l-95 86c-61 -49 -140 -77 -227 -77c-212 0 -356 156 -356 361s144 362 356 362c200 0 355 -145 355 -362c0 -90 -27 -168 -73 -228zM148 355c0 -159 112 -279 265 -279c63 0 118 20 162 55l-82 75l49 58l86 -76c31 45 49 103 49 167
c0 161 -111 280 -264 280s-265 -120 -265 -280z" />
    <glyph glyph-name="R" unicode="R" horiz-adv-x="642" 
d="M88 0v710h252c164 0 235 -94 235 -220c0 -119 -65 -188 -177 -211l196 -279h-104l-188 271h-127v-271h-87zM175 350h141c118 0 169 60 169 142c0 91 -59 139 -157 139h-153v-281z" />
    <glyph glyph-name="Racute" unicode="&#x154;" horiz-adv-x="642" 
d="M228 782l112 129h93l-122 -129h-83zM88 0v710h252c164 0 235 -94 235 -220c0 -119 -65 -188 -177 -211l196 -279h-104l-188 271h-127v-271h-87zM175 350h141c118 0 169 60 169 142c0 91 -59 139 -157 139h-153v-281z" />
    <glyph glyph-name="Rcaron" unicode="&#x158;" horiz-adv-x="642" 
d="M273 782l-113 124h82l73 -78h2l75 78h82l-116 -124h-85zM88 0v710h252c164 0 235 -94 235 -220c0 -119 -65 -188 -177 -211l196 -279h-104l-188 271h-127v-271h-87zM175 350h141c118 0 169 60 169 142c0 91 -59 139 -157 139h-153v-281z" />
    <glyph glyph-name="Rcommaaccent" unicode="&#x156;" horiz-adv-x="642" 
d="M88 0v710h252c164 0 235 -94 235 -220c0 -119 -65 -188 -177 -211l196 -279h-104l-188 271h-127v-271h-87zM175 350h141c118 0 169 60 169 142c0 91 -59 139 -157 139h-153v-281zM243 -212l-20 49c46 10 59 31 59 64c0 16 -2 28 -5 45h74c3 -15 4 -31 4 -49
c0 -66 -46 -103 -112 -109z" />
    <glyph glyph-name="uni1E5A" unicode="&#x1e5a;" horiz-adv-x="642" 
d="M88 0v710h252c164 0 235 -94 235 -220c0 -119 -65 -188 -177 -211l196 -279h-104l-188 271h-127v-271h-87zM175 350h141c118 0 169 60 169 142c0 91 -59 139 -157 139h-153v-281zM321 -94c33 0 59 -26 59 -58s-26 -58 -59 -58s-59 26 -59 58s26 58 59 58z" />
    <glyph glyph-name="uni1E5C" unicode="&#x1e5c;" horiz-adv-x="642" 
d="M174 809v67h288v-67h-288zM88 0v710h252c164 0 235 -94 235 -220c0 -119 -65 -188 -177 -211l196 -279h-104l-188 271h-127v-271h-87zM175 350h141c118 0 169 60 169 142c0 91 -59 139 -157 139h-153v-281zM321 -94c33 0 59 -26 59 -58s-26 -58 -59 -58s-59 26 -59 58
s26 58 59 58z" />
    <glyph glyph-name="uni1E5E" unicode="&#x1e5e;" horiz-adv-x="642" 
d="M88 0v710h252c164 0 235 -94 235 -220c0 -119 -65 -188 -177 -211l196 -279h-104l-188 271h-127v-271h-87zM175 350h141c118 0 169 60 169 142c0 91 -59 139 -157 139h-153v-281zM465 -194h-288v69h288v-69z" />
    <glyph glyph-name="S" unicode="S" horiz-adv-x="580" 
d="M293 -6c-89 0 -180 34 -251 110l56 67c51 -64 127 -96 196 -96c87 0 146 40 146 109c0 79 -64 100 -159 136c-105 39 -212 84 -212 209c0 106 95 188 217 188c79 0 157 -29 224 -83l-53 -69c-57 47 -118 72 -171 72c-67 0 -126 -36 -127 -104s63 -93 152 -127
c119 -47 220 -79 220 -212c0 -130 -114 -200 -238 -200z" />
    <glyph glyph-name="Sacute" unicode="&#x15a;" horiz-adv-x="580" 
d="M228 782l112 129h93l-122 -129h-83zM293 -6c-89 0 -180 34 -251 110l56 67c51 -64 127 -96 196 -96c87 0 146 40 146 109c0 79 -64 100 -159 136c-105 39 -212 84 -212 209c0 106 95 188 217 188c79 0 157 -29 224 -83l-53 -69c-57 47 -118 72 -171 72
c-67 0 -126 -36 -127 -104s63 -93 152 -127c119 -47 220 -79 220 -212c0 -130 -114 -200 -238 -200z" />
    <glyph glyph-name="Scaron" unicode="&#x160;" horiz-adv-x="580" 
d="M243 782l-113 124h82l73 -78h2l75 78h82l-116 -124h-85zM293 -6c-89 0 -180 34 -251 110l56 67c51 -64 127 -96 196 -96c87 0 146 40 146 109c0 79 -64 100 -159 136c-105 39 -212 84 -212 209c0 106 95 188 217 188c79 0 157 -29 224 -83l-53 -69
c-57 47 -118 72 -171 72c-67 0 -126 -36 -127 -104s63 -93 152 -127c119 -47 220 -79 220 -212c0 -130 -114 -200 -238 -200z" />
    <glyph glyph-name="Scedilla" unicode="&#x15e;" horiz-adv-x="580" 
d="M304 -6l-12 -25v-2c53 -2 88 -30 88 -79c0 -42 -33 -76 -107 -76c-24 0 -41 3 -56 6v44c12 -4 27 -7 48 -7c28 0 56 11 56 37c0 22 -27 42 -83 42l1 30l15 32c-76 9 -151 43 -212 108l56 67c51 -64 127 -96 196 -96c87 0 146 40 146 109c0 79 -64 100 -159 136
c-105 39 -212 84 -212 209c0 106 95 188 217 188c79 0 157 -29 224 -83l-53 -69c-57 47 -118 72 -171 72c-67 0 -126 -36 -127 -104s63 -93 152 -127c119 -47 220 -79 220 -212c0 -126 -108 -196 -227 -200z" />
    <glyph glyph-name="Scircumflex" unicode="&#x15c;" horiz-adv-x="580" 
d="M130 782l116 124h85l113 -124h-81l-74 78h-2l-74 -78h-83zM293 -6c-89 0 -180 34 -251 110l56 67c51 -64 127 -96 196 -96c87 0 146 40 146 109c0 79 -64 100 -159 136c-105 39 -212 84 -212 209c0 106 95 188 217 188c79 0 157 -29 224 -83l-53 -69
c-57 47 -118 72 -171 72c-67 0 -126 -36 -127 -104s63 -93 152 -127c119 -47 220 -79 220 -212c0 -130 -114 -200 -238 -200z" />
    <glyph glyph-name="Scommaaccent" unicode="&#x218;" horiz-adv-x="580" 
d="M293 -6c-89 0 -180 34 -251 110l56 67c51 -64 127 -96 196 -96c87 0 146 40 146 109c0 79 -64 100 -159 136c-105 39 -212 84 -212 209c0 106 95 188 217 188c79 0 157 -29 224 -83l-53 -69c-57 47 -118 72 -171 72c-67 0 -126 -36 -127 -104s63 -93 152 -127
c119 -47 220 -79 220 -212c0 -130 -114 -200 -238 -200zM225 -212l-20 49c46 10 59 31 59 64c0 16 -2 28 -5 45h74c3 -15 4 -31 4 -49c0 -66 -46 -103 -112 -109z" />
    <glyph glyph-name="uni1E60" unicode="&#x1e60;" horiz-adv-x="580" 
d="M288 792c-33 0 -59 26 -59 58s26 58 59 58s59 -26 59 -58s-26 -58 -59 -58zM293 -6c-89 0 -180 34 -251 110l56 67c51 -64 127 -96 196 -96c87 0 146 40 146 109c0 79 -64 100 -159 136c-105 39 -212 84 -212 209c0 106 95 188 217 188c79 0 157 -29 224 -83l-53 -69
c-57 47 -118 72 -171 72c-67 0 -126 -36 -127 -104s63 -93 152 -127c119 -47 220 -79 220 -212c0 -130 -114 -200 -238 -200z" />
    <glyph glyph-name="uni1E62" unicode="&#x1e62;" horiz-adv-x="580" 
d="M293 -6c-89 0 -180 34 -251 110l56 67c51 -64 127 -96 196 -96c87 0 146 40 146 109c0 79 -64 100 -159 136c-105 39 -212 84 -212 209c0 106 95 188 217 188c79 0 157 -29 224 -83l-53 -69c-57 47 -118 72 -171 72c-67 0 -126 -36 -127 -104s63 -93 152 -127
c119 -47 220 -79 220 -212c0 -130 -114 -200 -238 -200zM303 -94c33 0 59 -26 59 -58s-26 -58 -59 -58s-59 26 -59 58s26 58 59 58z" />
    <glyph glyph-name="uni1E9E" unicode="&#x1e9e;" horiz-adv-x="739" 
d="M491 406c118 -47 219 -79 219 -212c0 -130 -114 -200 -231 -200c-73 0 -155 27 -221 88l41 79c50 -58 121 -86 181 -86c80 0 139 40 139 109c0 79 -64 102 -159 136c-33 12 -68 27 -103 44l133 254l-1 3c-58 10 -118 16 -164 16c-116 0 -171 -41 -171 -150v-487h-87v492
c0 157 91 225 248 225c70 0 193 -18 297 -42l-139 -262c6 -2 12 -4 18 -7z" />
    <glyph glyph-name="uni018F" unicode="&#x18f;" horiz-adv-x="775" 
d="M367 717c230 0 351 -160 351 -360c0 -223 -146 -363 -342 -363c-195 0 -331 122 -331 332c0 17 1 31 2 44h582c-6 157 -101 264 -270 264c-80 1 -154 -23 -220 -71l-50 66c74 57 170 89 278 88zM374 76c127 0 227 78 250 216h-491c6 -133 102 -216 241 -216z" />
    <glyph glyph-name="T" unicode="T" horiz-adv-x="573" 
d="M242 0v631h-212v79h514v-79h-215v-631h-87z" />
    <glyph glyph-name="Tbar" unicode="&#x166;" horiz-adv-x="573" 
d="M544 631h-215v-247h121v-67h-121v-317h-87v317h-117v67h117v247h-212v79h514v-79z" />
    <glyph glyph-name="Tcaron" unicode="&#x164;" horiz-adv-x="573" 
d="M240 782l-113 124h82l73 -78h2l75 78h82l-116 -124h-85zM242 0v631h-212v79h514v-79h-215v-631h-87z" />
    <glyph glyph-name="Tdieresis" horiz-adv-x="573" 
d="M194 811c-33 0 -58 26 -58 58c0 31 25 56 58 56c32 0 58 -26 58 -57s-26 -57 -58 -57zM375 811c-32 0 -58 26 -58 58c0 31 26 56 58 56s58 -26 58 -57s-26 -57 -58 -57zM242 0v631h-212v79h514v-79h-215v-631h-87z" />
    <glyph glyph-name="uni1E6C" unicode="&#x1e6c;" horiz-adv-x="573" 
d="M242 0v631h-212v79h514v-79h-215v-631h-87zM289 -94c33 0 59 -26 59 -58s-26 -58 -59 -58s-59 26 -59 58s26 58 59 58z" />
    <glyph glyph-name="uni1E6E" unicode="&#x1e6e;" horiz-adv-x="573" 
d="M242 0v631h-212v79h514v-79h-215v-631h-87zM433 -194h-288v69h288v-69z" />
    <glyph glyph-name="U" unicode="U" horiz-adv-x="706" 
d="M353 -6c-163 0 -275 108 -275 295v421h87v-415c0 -131 73 -219 188 -219c110 0 189 82 189 219v415h87v-421c0 -182 -107 -295 -276 -295z" />
    <glyph glyph-name="Uacute" unicode="&#xda;" horiz-adv-x="706" 
d="M286 782l112 129h93l-122 -129h-83zM353 -6c-163 0 -275 108 -275 295v421h87v-415c0 -131 73 -219 188 -219c110 0 189 82 189 219v415h87v-421c0 -182 -107 -295 -276 -295z" />
    <glyph glyph-name="Ubreve" unicode="&#x16c;" horiz-adv-x="706" 
d="M353 776c-84 0 -138 52 -144 130h65c2 -36 30 -67 79 -67s77 32 79 67h65c-6 -78 -60 -130 -144 -130zM353 -6c-163 0 -275 108 -275 295v421h87v-415c0 -131 73 -219 188 -219c110 0 189 82 189 219v415h87v-421c0 -182 -107 -295 -276 -295z" />
    <glyph glyph-name="Ucircumflex" unicode="&#xdb;" horiz-adv-x="706" 
d="M195 782l116 124h85l113 -124h-81l-74 78h-2l-74 -78h-83zM353 -6c-163 0 -275 108 -275 295v421h87v-415c0 -131 73 -219 188 -219c110 0 189 82 189 219v415h87v-421c0 -182 -107 -295 -276 -295z" />
    <glyph glyph-name="Udieresis" unicode="&#xdc;" horiz-adv-x="706" 
d="M263 793c-33 0 -58 26 -58 58c0 31 25 56 58 56c32 0 58 -26 58 -57s-26 -57 -58 -57zM444 793c-32 0 -58 26 -58 58c0 31 26 56 58 56s58 -26 58 -57s-26 -57 -58 -57zM353 -6c-163 0 -275 108 -275 295v421h87v-415c0 -131 73 -219 188 -219c110 0 189 82 189 219v415
h87v-421c0 -182 -107 -295 -276 -295z" />
    <glyph glyph-name="uni1EE4" unicode="&#x1ee4;" horiz-adv-x="706" 
d="M353 -6c-163 0 -275 108 -275 295v421h87v-415c0 -131 73 -219 188 -219c110 0 189 82 189 219v415h87v-421c0 -182 -107 -295 -276 -295zM353 -94c33 0 59 -26 59 -58s-26 -58 -59 -58s-59 26 -59 58s26 58 59 58z" />
    <glyph glyph-name="Ugrave" unicode="&#xd9;" horiz-adv-x="706" 
d="M331 782l-122 129h92l112 -129h-82zM353 -6c-163 0 -275 108 -275 295v421h87v-415c0 -131 73 -219 188 -219c110 0 189 82 189 219v415h87v-421c0 -182 -107 -295 -276 -295z" />
    <glyph glyph-name="uni1EE6" unicode="&#x1ee6;" horiz-adv-x="706" 
d="M321 778c38 27 79 52 79 80c0 19 -15 28 -40 28c-30 0 -65 -15 -89 -32l-20 47c24 18 69 40 127 40c50 0 89 -23 89 -74c0 -47 -49 -73 -80 -89h-66zM353 -6c-163 0 -275 108 -275 295v421h87v-415c0 -131 73 -219 188 -219c110 0 189 82 189 219v415h87v-421
c0 -182 -107 -295 -276 -295z" />
    <glyph glyph-name="Uhorn" unicode="&#x1af;" horiz-adv-x="791" 
d="M698 774h83v-73c0 -113 -54 -174 -152 -177v-235c0 -182 -107 -295 -276 -295c-163 0 -275 108 -275 295v421h87v-415c0 -131 73 -219 188 -219c110 0 189 82 189 219v415h87v-130c60 9 69 51 69 125v69z" />
    <glyph glyph-name="uni1EE8" unicode="&#x1ee8;" horiz-adv-x="791" 
d="M491 911l-122 -129h-83l112 129h93zM698 774h83v-73c0 -113 -54 -174 -152 -177v-235c0 -182 -107 -295 -276 -295c-163 0 -275 108 -275 295v421h87v-415c0 -131 73 -219 188 -219c110 0 189 82 189 219v415h87v-130c60 9 69 51 69 125v69z" />
    <glyph glyph-name="uni1EF0" unicode="&#x1ef0;" horiz-adv-x="791" 
d="M698 774h83v-73c0 -113 -54 -174 -152 -177v-235c0 -182 -107 -295 -276 -295c-163 0 -275 108 -275 295v421h87v-415c0 -131 73 -219 188 -219c110 0 189 82 189 219v415h87v-130c60 9 69 51 69 125v69zM353 -94c33 0 59 -26 59 -58s-26 -58 -59 -58s-59 26 -59 58
s26 58 59 58z" />
    <glyph glyph-name="uni1EEA" unicode="&#x1eea;" horiz-adv-x="791" 
d="M413 782h-82l-122 129h92zM698 774h83v-73c0 -113 -54 -174 -152 -177v-235c0 -182 -107 -295 -276 -295c-163 0 -275 108 -275 295v421h87v-415c0 -131 73 -219 188 -219c110 0 189 82 189 219v415h87v-130c60 9 69 51 69 125v69z" />
    <glyph glyph-name="uni1EEC" unicode="&#x1eec;" horiz-adv-x="791" 
d="M360 886c-30 0 -65 -15 -89 -32l-20 47c24 18 69 40 127 40c50 0 89 -23 89 -74c0 -47 -49 -73 -80 -89h-66c38 27 79 52 79 80c0 19 -15 28 -40 28zM698 774h83v-73c0 -113 -54 -174 -152 -177v-235c0 -182 -107 -295 -276 -295c-163 0 -275 108 -275 295v421h87v-415
c0 -131 73 -219 188 -219c110 0 189 82 189 219v415h87v-130c60 9 69 51 69 125v69z" />
    <glyph glyph-name="uni1EEE" unicode="&#x1eee;" horiz-adv-x="791" 
d="M283 840c-24 0 -44 -21 -58 -55l-52 22c19 56 53 94 104 94c36 0 62 -16 85 -30c22 -13 41 -28 64 -28c22 0 40 16 54 55l52 -17c-20 -67 -56 -99 -101 -99c-31 0 -59 16 -85 33c-23 14 -44 25 -63 25zM698 774h83v-73c0 -113 -54 -174 -152 -177v-235
c0 -182 -107 -295 -276 -295c-163 0 -275 108 -275 295v421h87v-415c0 -131 73 -219 188 -219c110 0 189 82 189 219v415h87v-130c60 9 69 51 69 125v69z" />
    <glyph glyph-name="Uhungarumlaut" unicode="&#x170;" horiz-adv-x="706" 
d="M229 781l118 141l85 1l-124 -142h-79zM397 781l117 141l85 1l-124 -142h-78zM353 -6c-163 0 -275 108 -275 295v421h87v-415c0 -131 73 -219 188 -219c110 0 189 82 189 219v415h87v-421c0 -182 -107 -295 -276 -295z" />
    <glyph glyph-name="Umacron" unicode="&#x16a;" horiz-adv-x="706" 
d="M209 809v67h288v-67h-288zM353 -6c-163 0 -275 108 -275 295v421h87v-415c0 -131 73 -219 188 -219c110 0 189 82 189 219v415h87v-421c0 -182 -107 -295 -276 -295z" />
    <glyph glyph-name="Uogonek" unicode="&#x172;" horiz-adv-x="706" 
d="M542 710h87v-421c0 -154 -77 -259 -202 -287c-48 -19 -78 -51 -78 -83c0 -27 16 -46 49 -46c26 0 34 3 47 9l5 -52c-18 -8 -40 -13 -68 -13c-61 0 -100 33 -100 85c0 29 18 63 51 91v2c-152 8 -255 115 -255 294v421h87v-415c0 -131 73 -219 188 -219
c110 0 189 82 189 219v415z" />
    <glyph glyph-name="Uring" unicode="&#x16e;" horiz-adv-x="706" 
d="M352 760c-51 0 -95 42 -95 94c0 51 41 94 95 94s97 -41 97 -94c0 -50 -41 -94 -97 -94zM352 813c25 0 44 19 44 42s-19 42 -44 42c-23 0 -42 -19 -42 -42c0 -24 19 -42 42 -42zM353 -6c-163 0 -275 108 -275 295v421h87v-415c0 -131 73 -219 188 -219
c110 0 189 82 189 219v415h87v-421c0 -182 -107 -295 -276 -295z" />
    <glyph glyph-name="Utilde" unicode="&#x168;" horiz-adv-x="706" 
d="M431 782c-31 0 -59 16 -85 33c-23 14 -44 25 -63 25c-24 0 -44 -21 -58 -55l-52 22c19 56 53 94 104 94c36 0 62 -16 85 -30c22 -13 41 -28 64 -28c22 0 40 16 54 55l52 -17c-20 -67 -56 -99 -101 -99zM353 -6c-163 0 -275 108 -275 295v421h87v-415
c0 -131 73 -219 188 -219c110 0 189 82 189 219v415h87v-421c0 -182 -107 -295 -276 -295z" />
    <glyph glyph-name="V" unicode="V" horiz-adv-x="670" 
d="M298 0l-268 710h94l213 -584h1l213 584h93l-268 -710h-78z" />
    <glyph glyph-name="W" unicode="W" horiz-adv-x="1020" 
d="M259 0l-226 710h93l175 -569h2l160 569h95l159 -568h2l176 568h92l-227 -710h-84l-164 583h-2l-167 -583h-84z" />
    <glyph glyph-name="Wacute" unicode="&#x1e82;" horiz-adv-x="1020" 
d="M471 782l112 129h93l-122 -129h-83zM259 0l-226 710h93l175 -569h2l160 569h95l159 -568h2l176 568h92l-227 -710h-84l-164 583h-2l-167 -583h-84z" />
    <glyph glyph-name="Wcircumflex" unicode="&#x174;" horiz-adv-x="1020" 
d="M353 782l116 124h85l113 -124h-81l-74 78h-2l-74 -78h-83zM259 0l-226 710h93l175 -569h2l160 569h95l159 -568h2l176 568h92l-227 -710h-84l-164 583h-2l-167 -583h-84z" />
    <glyph glyph-name="Wdieresis" unicode="&#x1e84;" horiz-adv-x="1020" 
d="M421 793c-33 0 -58 26 -58 58c0 31 25 56 58 56c32 0 58 -26 58 -57s-26 -57 -58 -57zM602 793c-32 0 -58 26 -58 58c0 31 26 56 58 56s58 -26 58 -57s-26 -57 -58 -57zM259 0l-226 710h93l175 -569h2l160 569h95l159 -568h2l176 568h92l-227 -710h-84l-164 583h-2
l-167 -583h-84z" />
    <glyph glyph-name="Wgrave" unicode="&#x1e80;" horiz-adv-x="1020" 
d="M473 782l-122 129h92l112 -129h-82zM259 0l-226 710h93l175 -569h2l160 569h95l159 -568h2l176 568h92l-227 -710h-84l-164 583h-2l-167 -583h-84z" />
    <glyph glyph-name="X" unicode="X" horiz-adv-x="663" 
d="M33 0l241 355l-238 355h101l195 -287h1l194 287h101l-239 -355l242 -355h-103l-196 286h-2l-196 -286h-101z" />
    <glyph glyph-name="Y" unicode="Y" horiz-adv-x="601" 
d="M256 0v317l-241 393h100l184 -305h2l183 305h102l-243 -393v-317h-87z" />
    <glyph glyph-name="Yacute" unicode="&#xdd;" horiz-adv-x="601" 
d="M249 782l112 129h93l-122 -129h-83zM256 0v317l-241 393h100l184 -305h2l183 305h102l-243 -393v-317h-87z" />
    <glyph glyph-name="Ycircumflex" unicode="&#x176;" horiz-adv-x="601" 
d="M144 782l116 124h85l113 -124h-81l-74 78h-2l-74 -78h-83zM256 0v317l-241 393h100l184 -305h2l183 305h102l-243 -393v-317h-87z" />
    <glyph glyph-name="Ydieresis" unicode="&#x178;" horiz-adv-x="601" 
d="M212 793c-33 0 -58 26 -58 58c0 31 25 56 58 56c32 0 58 -26 58 -57s-26 -57 -58 -57zM393 793c-32 0 -58 26 -58 58c0 31 26 56 58 56s58 -26 58 -57s-26 -57 -58 -57zM256 0v317l-241 393h100l184 -305h2l183 305h102l-243 -393v-317h-87z" />
    <glyph glyph-name="uni1E8E" unicode="&#x1e8e;" horiz-adv-x="601" 
d="M302 792c-33 0 -59 26 -59 58s26 58 59 58s59 -26 59 -58s-26 -58 -59 -58zM256 0v317l-241 393h100l184 -305h2l183 305h102l-243 -393v-317h-87z" />
    <glyph glyph-name="uni1EF4" unicode="&#x1ef4;" horiz-adv-x="601" 
d="M256 0v317l-241 393h100l184 -305h2l183 305h102l-243 -393v-317h-87zM300 -94c33 0 59 -26 59 -58s-26 -58 -59 -58s-59 26 -59 58s26 58 59 58z" />
    <glyph glyph-name="Ygrave" unicode="&#x1ef2;" horiz-adv-x="601" 
d="M289 782l-122 129h92l112 -129h-82zM256 0v317l-241 393h100l184 -305h2l183 305h102l-243 -393v-317h-87z" />
    <glyph glyph-name="uni1EF6" unicode="&#x1ef6;" horiz-adv-x="601" 
d="M270 778c38 27 79 52 79 80c0 19 -15 28 -40 28c-30 0 -65 -15 -89 -32l-20 47c24 18 69 40 127 40c50 0 89 -23 89 -74c0 -47 -49 -73 -80 -89h-66zM256 0v317l-241 393h100l184 -305h2l183 305h102l-243 -393v-317h-87z" />
    <glyph glyph-name="uni0232" unicode="&#x232;" horiz-adv-x="601" 
d="M158 809v67h288v-67h-288zM256 0v317l-241 393h100l184 -305h2l183 305h102l-243 -393v-317h-87z" />
    <glyph glyph-name="uni1EF8" unicode="&#x1ef8;" horiz-adv-x="601" 
d="M380 782c-31 0 -59 16 -85 33c-23 14 -44 25 -63 25c-24 0 -44 -21 -58 -55l-52 22c19 56 53 94 104 94c36 0 62 -16 85 -30c22 -13 41 -28 64 -28c22 0 40 16 54 55l52 -17c-20 -67 -56 -99 -101 -99zM256 0v317l-241 393h100l184 -305h2l183 305h102l-243 -393v-317
h-87z" />
    <glyph glyph-name="Z" unicode="Z" horiz-adv-x="613" 
d="M57 0v69l378 561l-1 1h-358v79h473v-69l-381 -560l1 -2h384v-79h-496z" />
    <glyph glyph-name="Zacute" unicode="&#x179;" horiz-adv-x="613" 
d="M214 782l112 129h93l-122 -129h-83zM57 0v69l378 561l-1 1h-358v79h473v-69l-381 -560l1 -2h384v-79h-496z" />
    <glyph glyph-name="Zcaron" unicode="&#x17d;" horiz-adv-x="613" 
d="M259 782l-113 124h82l73 -78h2l75 78h82l-116 -124h-85zM57 0v69l378 561l-1 1h-358v79h473v-69l-381 -560l1 -2h384v-79h-496z" />
    <glyph glyph-name="Zdotaccent" unicode="&#x17b;" horiz-adv-x="613" 
d="M304 792c-33 0 -59 26 -59 58s26 58 59 58s59 -26 59 -58s-26 -58 -59 -58zM57 0v69l378 561l-1 1h-358v79h473v-69l-381 -560l1 -2h384v-79h-496z" />
    <glyph glyph-name="uni1E92" unicode="&#x1e92;" horiz-adv-x="613" 
d="M57 0v69l378 561l-1 1h-358v79h473v-69l-381 -560l1 -2h384v-79h-496zM304 -94c33 0 59 -26 59 -58s-26 -58 -59 -58s-59 26 -59 58s26 58 59 58z" />
    <glyph glyph-name="uni01D3" unicode="&#x1d3;" horiz-adv-x="706" 
d="M308 782l-113 124h82l73 -78h2l75 78h82l-116 -124h-85zM353 -6c-163 0 -275 108 -275 295v421h87v-415c0 -131 73 -219 188 -219c110 0 189 82 189 219v415h87v-421c0 -182 -107 -295 -276 -295z" />
    <glyph glyph-name="uni01D5" unicode="&#x1d5;" horiz-adv-x="706" 
d="M209 941v57h288v-57h-288zM267 782c-31 0 -55 23 -55 52s24 53 55 53s55 -24 55 -53s-24 -52 -55 -52zM435 782c-31 0 -55 23 -55 52s24 53 55 53s55 -24 55 -53s-24 -52 -55 -52zM353 -6c-163 0 -275 108 -275 295v421h87v-415c0 -131 73 -219 188 -219
c110 0 189 82 189 219v415h87v-421c0 -182 -107 -295 -276 -295z" />
    <glyph glyph-name="uni01D7" unicode="&#x1d7;" horiz-adv-x="706" 
d="M323 901l97 129h92l-125 -129h-64zM267 782c-31 0 -55 23 -55 52s24 53 55 53s55 -24 55 -53s-24 -52 -55 -52zM435 782c-31 0 -55 23 -55 52s24 53 55 53s55 -24 55 -53s-24 -52 -55 -52zM353 -6c-163 0 -275 108 -275 295v421h87v-415c0 -131 73 -219 188 -219
c110 0 189 82 189 219v415h87v-421c0 -182 -107 -295 -276 -295z" />
    <glyph glyph-name="uni01D9" unicode="&#x1d9;" horiz-adv-x="706" 
d="M313 910l-113 124h82l73 -78h2l75 78h82l-116 -124h-85zM267 782c-31 0 -55 23 -55 52s24 53 55 53s55 -24 55 -53s-24 -52 -55 -52zM435 782c-31 0 -55 23 -55 52s24 53 55 53s55 -24 55 -53s-24 -52 -55 -52zM353 -6c-163 0 -275 108 -275 295v421h87v-415
c0 -131 73 -219 188 -219c110 0 189 82 189 219v415h87v-421c0 -182 -107 -295 -276 -295z" />
    <glyph glyph-name="uni01DB" unicode="&#x1db;" horiz-adv-x="706" 
d="M321 901l-124 129h91l98 -129h-65zM267 782c-31 0 -55 23 -55 52s24 53 55 53s55 -24 55 -53s-24 -52 -55 -52zM435 782c-31 0 -55 23 -55 52s24 53 55 53s55 -24 55 -53s-24 -52 -55 -52zM353 -6c-163 0 -275 108 -275 295v421h87v-415c0 -131 73 -219 188 -219
c110 0 189 82 189 219v415h87v-421c0 -182 -107 -295 -276 -295z" />
    <glyph glyph-name="uni1E30" unicode="&#x1e30;" horiz-adv-x="646" 
d="M245 782l112 129h93l-122 -129h-83zM88 0v710h87v-389h2l322 389h112l-275 -324l282 -386h-109l-231 318l-103 -121v-197h-87z" />
    <glyph glyph-name="Q.alt" horiz-adv-x="826" 
d="M768 355c0 -140 -65 -251 -166 -311l144 -121l-52 -65l-177 150c-33 -9 -68 -14 -104 -14c-212 0 -356 156 -356 361s144 362 356 362c200 0 355 -145 355 -362zM148 355c0 -155 107 -279 265 -279c148 0 264 115 264 279c0 165 -116 280 -264 280
c-158 0 -265 -125 -265 -280z" />
    <glyph glyph-name="a" unicode="a" horiz-adv-x="604" 
d="M281 -6c-134 0 -237 98 -237 246c0 144 99 253 237 253c72 0 135 -34 170 -93l2 1v86h81v-487h-78v88h-1c-35 -58 -95 -94 -174 -94zM293 68c90 0 163 69 163 172c0 100 -67 179 -163 179c-92 0 -167 -71 -167 -179c0 -98 67 -172 167 -172z" />
    <glyph glyph-name="aacute" unicode="&#xe1;" horiz-adv-x="604" 
d="M253 557l118 141l91 1l-124 -142h-85zM281 -6c-134 0 -237 98 -237 246c0 144 99 253 237 253c72 0 135 -34 170 -93l2 1v86h81v-487h-78v88h-1c-35 -58 -95 -94 -174 -94zM293 68c90 0 163 69 163 172c0 100 -67 179 -163 179c-92 0 -167 -71 -167 -179
c0 -98 67 -172 167 -172z" />
    <glyph glyph-name="abreve" unicode="&#x103;" horiz-adv-x="604" 
d="M299 552c-84 0 -138 53 -144 142h65c2 -42 31 -78 79 -78c49 0 77 36 79 78h65c-6 -89 -60 -142 -144 -142zM281 -6c-134 0 -237 98 -237 246c0 144 99 253 237 253c72 0 135 -34 170 -93l2 1v86h81v-487h-78v88h-1c-35 -58 -95 -94 -174 -94zM293 68
c90 0 163 69 163 172c0 100 -67 179 -163 179c-92 0 -167 -71 -167 -179c0 -98 67 -172 167 -172z" />
    <glyph glyph-name="uni1EAF" unicode="&#x1eaf;" horiz-adv-x="604" 
d="M260 703l97 142h91l-123 -142h-65zM299 552c-84 0 -138 53 -144 142h65c2 -42 31 -78 79 -78c49 0 77 36 79 78h65c-6 -89 -60 -142 -144 -142zM281 -6c-134 0 -237 98 -237 246c0 144 99 253 237 253c72 0 135 -34 170 -93l2 1v86h81v-487h-78v88h-1
c-35 -58 -95 -94 -174 -94zM293 68c90 0 163 69 163 172c0 100 -67 179 -163 179c-92 0 -167 -71 -167 -179c0 -98 67 -172 167 -172z" />
    <glyph glyph-name="uni1EB7" unicode="&#x1eb7;" horiz-adv-x="604" 
d="M299 552c-84 0 -138 53 -144 142h65c2 -42 31 -78 79 -78c49 0 77 36 79 78h65c-6 -89 -60 -142 -144 -142zM281 -6c-134 0 -237 98 -237 246c0 144 99 253 237 253c72 0 135 -34 170 -93l2 1v86h81v-487h-78v88h-1c-35 -58 -95 -94 -174 -94zM293 68
c90 0 163 69 163 172c0 100 -67 179 -163 179c-92 0 -167 -71 -167 -179c0 -98 67 -172 167 -172zM292 -94c33 0 59 -26 59 -58s-26 -58 -59 -58s-59 26 -59 58s26 58 59 58z" />
    <glyph glyph-name="uni1EB1" unicode="&#x1eb1;" horiz-adv-x="604" 
d="M277 703l-124 142h92l97 -142h-65zM299 552c-84 0 -138 53 -144 142h65c2 -42 31 -78 79 -78c49 0 77 36 79 78h65c-6 -89 -60 -142 -144 -142zM281 -6c-134 0 -237 98 -237 246c0 144 99 253 237 253c72 0 135 -34 170 -93l2 1v86h81v-487h-78v88h-1
c-35 -58 -95 -94 -174 -94zM293 68c90 0 163 69 163 172c0 100 -67 179 -163 179c-92 0 -167 -71 -167 -179c0 -98 67 -172 167 -172z" />
    <glyph glyph-name="uni1EB3" unicode="&#x1eb3;" horiz-adv-x="604" 
d="M261 689c42 30 78 62 77 89c0 20 -15 27 -38 27c-29 0 -56 -8 -84 -31l-19 45c23 20 65 42 120 42c48 0 86 -22 86 -74c0 -47 -50 -83 -79 -98h-63zM299 553c-86 0 -142 51 -148 136h67c2 -40 32 -75 81 -75c50 0 79 35 81 75h67c-6 -85 -62 -136 -148 -136zM281 -6
c-134 0 -237 98 -237 246c0 144 99 253 237 253c72 0 135 -34 170 -93l2 1v86h81v-487h-78v88h-1c-35 -58 -95 -94 -174 -94zM293 68c90 0 163 69 163 172c0 100 -67 179 -163 179c-92 0 -167 -71 -167 -179c0 -98 67 -172 167 -172z" />
    <glyph glyph-name="uni1EB5" unicode="&#x1eb5;" horiz-adv-x="604" 
d="M177 740l-52 23c19 57 49 94 100 94c22 0 46 -7 76 -26c32 -20 47 -29 63 -29c29 0 46 21 58 56l52 -18c-18 -62 -51 -100 -101 -100c-30 0 -58 16 -83 32c-21 14 -40 25 -59 24c-20 -2 -41 -21 -54 -56zM298 552c-84 0 -138 53 -144 142h65c2 -42 31 -78 79 -78
c49 0 77 36 79 78h65c-6 -89 -60 -142 -144 -142zM281 -6c-134 0 -237 98 -237 246c0 144 99 253 237 253c72 0 135 -34 170 -93l2 1v86h81v-487h-78v88h-1c-35 -58 -95 -94 -174 -94zM293 68c90 0 163 69 163 172c0 100 -67 179 -163 179c-92 0 -167 -71 -167 -179
c0 -98 67 -172 167 -172z" />
    <glyph glyph-name="uni01CE" unicode="&#x1ce;" horiz-adv-x="604" 
d="M254 555l-111 139h82l72 -88h2l72 88h83l-115 -139h-85zM281 -6c-134 0 -237 98 -237 246c0 144 99 253 237 253c72 0 135 -34 170 -93l2 1v86h81v-487h-78v88h-1c-35 -58 -95 -94 -174 -94zM293 68c90 0 163 69 163 172c0 100 -67 179 -163 179
c-92 0 -167 -71 -167 -179c0 -98 67 -172 167 -172z" />
    <glyph glyph-name="acircumflex" unicode="&#xe2;" horiz-adv-x="604" 
d="M143 556l115 140h85l111 -140h-81l-72 89h-2l-73 -89h-83zM281 -6c-134 0 -237 98 -237 246c0 144 99 253 237 253c72 0 135 -34 170 -93l2 1v86h81v-487h-78v88h-1c-35 -58 -95 -94 -174 -94zM293 68c90 0 163 69 163 172c0 100 -67 179 -163 179
c-92 0 -167 -71 -167 -179c0 -98 67 -172 167 -172z" />
    <glyph glyph-name="uni1EA5" unicode="&#x1ea5;" horiz-adv-x="604" 
d="M422 643l96 142h92l-124 -142h-64zM144 556l115 140h85l111 -140h-81l-72 89h-2l-73 -89h-83zM281 -6c-134 0 -237 98 -237 246c0 144 99 253 237 253c72 0 135 -34 170 -93l2 1v86h81v-487h-78v88h-1c-35 -58 -95 -94 -174 -94zM293 68c90 0 163 69 163 172
c0 100 -67 179 -163 179c-92 0 -167 -71 -167 -179c0 -98 67 -172 167 -172z" />
    <glyph glyph-name="uni1EAD" unicode="&#x1ead;" horiz-adv-x="604" 
d="M143 556l115 140h85l111 -140h-81l-72 89h-2l-73 -89h-83zM281 -6c-134 0 -237 98 -237 246c0 144 99 253 237 253c72 0 135 -34 170 -93l2 1v86h81v-487h-78v88h-1c-35 -58 -95 -94 -174 -94zM293 68c90 0 163 69 163 172c0 100 -67 179 -163 179
c-92 0 -167 -71 -167 -179c0 -98 67 -172 167 -172zM292 -94c33 0 59 -26 59 -58s-26 -58 -59 -58s-59 26 -59 58s26 58 59 58z" />
    <glyph glyph-name="uni1EA7" unicode="&#x1ea7;" horiz-adv-x="604" 
d="M463 643l-123 142h91l97 -142h-65zM143 557l115 140h85l111 -140h-81l-72 89h-2l-73 -89h-83zM281 -6c-134 0 -237 98 -237 246c0 144 99 253 237 253c72 0 135 -34 170 -93l2 1v86h81v-487h-78v88h-1c-35 -58 -95 -94 -174 -94zM293 68c90 0 163 69 163 172
c0 100 -67 179 -163 179c-92 0 -167 -71 -167 -179c0 -98 67 -172 167 -172z" />
    <glyph glyph-name="uni1EA9" unicode="&#x1ea9;" horiz-adv-x="604" 
d="M437 648c42 30 78 62 77 89c0 20 -15 27 -38 27c-29 0 -56 -8 -84 -31l-19 45c23 20 65 42 120 42c48 0 86 -22 86 -74c0 -47 -50 -83 -79 -98h-63zM143 556l115 140h85l111 -140h-81l-72 89h-2l-73 -89h-83zM281 -6c-134 0 -237 98 -237 246c0 144 99 253 237 253
c72 0 135 -34 170 -93l2 1v86h81v-487h-78v88h-1c-35 -58 -95 -94 -174 -94zM293 68c90 0 163 69 163 172c0 100 -67 179 -163 179c-92 0 -167 -71 -167 -179c0 -98 67 -172 167 -172z" />
    <glyph glyph-name="uni1EAB" unicode="&#x1eab;" horiz-adv-x="604" 
d="M178 748l-52 23c19 57 49 94 100 94c22 0 46 -7 76 -26c32 -20 47 -29 63 -29c29 0 46 21 58 56l52 -18c-18 -62 -51 -100 -101 -100c-30 0 -58 16 -83 32c-21 14 -40 25 -59 24c-20 -2 -41 -21 -54 -56zM144 556l115 140h85l111 -140h-81l-72 89h-2l-73 -89h-83zM281 -6
c-134 0 -237 98 -237 246c0 144 99 253 237 253c72 0 135 -34 170 -93l2 1v86h81v-487h-78v88h-1c-35 -58 -95 -94 -174 -94zM293 68c90 0 163 69 163 172c0 100 -67 179 -163 179c-92 0 -167 -71 -167 -179c0 -98 67 -172 167 -172z" />
    <glyph glyph-name="adieresis" unicode="&#xe4;" horiz-adv-x="604" 
d="M208 577c-33 0 -58 26 -58 58c0 31 25 56 58 56c32 0 58 -26 58 -57s-26 -57 -58 -57zM389 577c-32 0 -58 26 -58 58c0 31 26 56 58 56s58 -26 58 -57s-26 -57 -58 -57zM281 -6c-134 0 -237 98 -237 246c0 144 99 253 237 253c72 0 135 -34 170 -93l2 1v86h81v-487h-78
v88h-1c-35 -58 -95 -94 -174 -94zM293 68c90 0 163 69 163 172c0 100 -67 179 -163 179c-92 0 -167 -71 -167 -179c0 -98 67 -172 167 -172z" />
    <glyph glyph-name="uni1EA1" unicode="&#x1ea1;" horiz-adv-x="604" 
d="M281 -6c-134 0 -237 98 -237 246c0 144 99 253 237 253c72 0 135 -34 170 -93l2 1v86h81v-487h-78v88h-1c-35 -58 -95 -94 -174 -94zM293 68c90 0 163 69 163 172c0 100 -67 179 -163 179c-92 0 -167 -71 -167 -179c0 -98 67 -172 167 -172zM292 -94c33 0 59 -26 59 -58
s-26 -58 -59 -58s-59 26 -59 58s26 58 59 58z" />
    <glyph glyph-name="agrave" unicode="&#xe0;" horiz-adv-x="604" 
d="M280 558l-121 138l92 -1l111 -137h-82zM281 -6c-134 0 -237 98 -237 246c0 144 99 253 237 253c72 0 135 -34 170 -93l2 1v86h81v-487h-78v88h-1c-35 -58 -95 -94 -174 -94zM293 68c90 0 163 69 163 172c0 100 -67 179 -163 179c-92 0 -167 -71 -167 -179
c0 -98 67 -172 167 -172z" />
    <glyph glyph-name="uni1EA3" unicode="&#x1ea3;" horiz-adv-x="604" 
d="M265 554c44 32 82 65 81 93c0 21 -16 29 -40 29c-30 0 -58 -9 -88 -33l-20 47c24 21 68 44 126 44c51 0 90 -23 90 -77c0 -49 -52 -87 -83 -103h-66zM281 -6c-134 0 -237 98 -237 246c0 144 99 253 237 253c72 0 135 -34 170 -93l2 1v86h81v-487h-78v88h-1
c-35 -58 -95 -94 -174 -94zM293 68c90 0 163 69 163 172c0 100 -67 179 -163 179c-92 0 -167 -71 -167 -179c0 -98 67 -172 167 -172z" />
    <glyph glyph-name="amacron" unicode="&#x101;" horiz-adv-x="604" 
d="M155 596v69h288v-69h-288zM281 -6c-134 0 -237 98 -237 246c0 144 99 253 237 253c72 0 135 -34 170 -93l2 1v86h81v-487h-78v88h-1c-35 -58 -95 -94 -174 -94zM293 68c90 0 163 69 163 172c0 100 -67 179 -163 179c-92 0 -167 -71 -167 -179c0 -98 67 -172 167 -172z
" />
    <glyph glyph-name="aogonek" unicode="&#x105;" horiz-adv-x="604" 
d="M544 -121l6 -52c-18 -8 -41 -13 -69 -13c-61 0 -99 32 -99 84c0 35 25 78 74 109v81h-1c-35 -58 -95 -94 -174 -94c-134 0 -237 98 -237 246c0 144 99 253 237 253c72 0 135 -34 170 -93l2 1v86h81v-487h-7c-49 -16 -79 -52 -79 -85c0 -27 16 -45 49 -45c26 0 34 3 47 9z
M293 68c90 0 163 69 163 172c0 100 -67 179 -163 179c-92 0 -167 -71 -167 -179c0 -98 67 -172 167 -172z" />
    <glyph glyph-name="aring" unicode="&#xe5;" horiz-adv-x="604" 
d="M298 545c-51 0 -95 42 -95 94c0 51 41 94 95 94s97 -41 97 -94c0 -50 -41 -94 -97 -94zM298 598c25 0 44 19 44 42s-19 42 -44 42c-23 0 -42 -19 -42 -42c0 -24 19 -42 42 -42zM281 -6c-134 0 -237 98 -237 246c0 144 99 253 237 253c72 0 135 -34 170 -93l2 1v86h81
v-487h-78v88h-1c-35 -58 -95 -94 -174 -94zM293 68c90 0 163 69 163 172c0 100 -67 179 -163 179c-92 0 -167 -71 -167 -179c0 -98 67 -172 167 -172z" />
    <glyph glyph-name="aringacute" unicode="&#x1fb;" horiz-adv-x="604" 
d="M298 545c-51 0 -95 42 -95 94c0 51 41 94 95 94c29 0 55 -12 73 -31l66 46h96l-138 -102v-7c0 -50 -41 -94 -97 -94zM298 682c-23 0 -42 -19 -42 -42c0 -24 19 -42 42 -42c25 0 44 19 44 42s-19 42 -44 42zM453 487h81v-487h-78v88h-1c-35 -58 -95 -94 -174 -94
c-134 0 -237 98 -237 246c0 144 99 253 237 253c72 0 135 -34 170 -93l2 1v86zM293 68c90 0 163 69 163 172c0 100 -67 179 -163 179c-92 0 -167 -71 -167 -179c0 -98 67 -172 167 -172z" />
    <glyph glyph-name="atilde" unicode="&#xe3;" horiz-adv-x="604" 
d="M377 562c-34 0 -63 19 -88 36c-20 13 -39 24 -58 24c-27 0 -47 -21 -60 -56l-52 23c19 60 53 98 104 98c35 0 59 -14 81 -29c21 -13 41 -29 64 -29c24 0 45 20 58 55l51 -17c-18 -67 -56 -105 -100 -105zM281 -6c-134 0 -237 98 -237 246c0 144 99 253 237 253
c72 0 135 -34 170 -93l2 1v86h81v-487h-78v88h-1c-35 -58 -95 -94 -174 -94zM293 68c90 0 163 69 163 172c0 100 -67 179 -163 179c-92 0 -167 -71 -167 -179c0 -98 67 -172 167 -172z" />
    <glyph glyph-name="ae" unicode="&#xe6;" horiz-adv-x="790" 
d="M754 252c0 -14 0 -27 -1 -34h-340c10 -92 65 -150 149 -150c63 0 93 26 122 65l56 -48c-41 -54 -86 -91 -184 -91c-84 0 -141 43 -174 99h-2c-27 -56 -91 -99 -179 -99c-116 0 -169 69 -169 148c0 87 61 145 186 145h116v12c0 91 -29 121 -97 121
c-48 0 -101 -16 -139 -37l-31 66c33 19 104 44 175 44c76 0 121 -29 146 -94h2c37 60 99 94 164 94c119 0 200 -102 200 -241zM415 285h258c-7 76 -47 134 -122 134c-72 0 -123 -56 -136 -134zM208 62c67 0 127 44 127 120v39h-110c-69 0 -113 -25 -113 -78
c0 -44 31 -81 96 -81z" />
    <glyph glyph-name="aeacute" unicode="&#x1fd;" horiz-adv-x="790" 
d="M551 699l-124 -142h-85l118 141zM754 252c0 -14 0 -27 -1 -34h-340c10 -92 65 -150 149 -150c63 0 93 26 122 65l56 -48c-41 -54 -86 -91 -184 -91c-84 0 -141 43 -174 99h-2c-27 -56 -91 -99 -179 -99c-116 0 -169 69 -169 148c0 87 61 145 186 145h116v12
c0 91 -29 121 -97 121c-48 0 -101 -16 -139 -37l-31 66c33 19 104 44 175 44c76 0 121 -29 146 -94h2c37 60 99 94 164 94c119 0 200 -102 200 -241zM415 285h258c-7 76 -47 134 -122 134c-72 0 -123 -56 -136 -134zM208 62c67 0 127 44 127 120v39h-110
c-69 0 -113 -25 -113 -78c0 -44 31 -81 96 -81z" />
    <glyph glyph-name="b" unicode="b" horiz-adv-x="614" 
d="M331 -6c-80 0 -140 36 -176 94h-2v-88h-77v736h81v-334h1c37 58 99 91 173 91c138 0 237 -109 237 -253c0 -148 -103 -246 -237 -246zM320 68c98 0 166 74 166 172c0 108 -75 179 -167 179c-99 0 -166 -79 -166 -179c0 -103 74 -172 167 -172z" />
    <glyph glyph-name="c" unicode="c" horiz-adv-x="521" 
d="M288 -6c-142 0 -243 101 -243 249c0 147 101 250 246 250c73 0 148 -30 196 -87l-55 -49c-31 36 -79 62 -137 62c-100 0 -167 -73 -167 -176c0 -104 67 -175 166 -175c58 0 109 25 139 62l56 -51c-41 -49 -106 -85 -201 -85z" />
    <glyph glyph-name="cacute" unicode="&#x107;" horiz-adv-x="521" 
d="M238 557l118 141l91 1l-124 -142h-85zM288 -6c-142 0 -243 101 -243 249c0 147 101 250 246 250c73 0 148 -30 196 -87l-55 -49c-31 36 -79 62 -137 62c-100 0 -167 -73 -167 -176c0 -104 67 -175 166 -175c58 0 109 25 139 62l56 -51c-41 -49 -106 -85 -201 -85z" />
    <glyph glyph-name="ccaron" unicode="&#x10d;" horiz-adv-x="521" 
d="M245 555l-111 139h82l72 -88h2l72 88h83l-115 -139h-85zM288 -6c-142 0 -243 101 -243 249c0 147 101 250 246 250c73 0 148 -30 196 -87l-55 -49c-31 36 -79 62 -137 62c-100 0 -167 -73 -167 -176c0 -104 67 -175 166 -175c58 0 109 25 139 62l56 -51
c-41 -49 -106 -85 -201 -85z" />
    <glyph glyph-name="ccedilla" unicode="&#xe7;" horiz-adv-x="521" 
d="M298 -6l-12 -25v-2c53 -2 88 -30 88 -79c0 -42 -33 -76 -107 -76c-24 0 -41 3 -56 6v44c12 -4 27 -7 48 -7c28 0 56 11 56 37c0 22 -27 42 -83 42l1 30l15 33c-121 17 -203 112 -203 246c0 147 101 250 246 250c73 0 148 -30 196 -87l-55 -49c-31 36 -79 62 -137 62
c-100 0 -167 -73 -167 -176c0 -104 67 -175 166 -175c58 0 109 25 139 62l56 -51c-40 -47 -102 -83 -191 -85z" />
    <glyph glyph-name="ccircumflex" unicode="&#x109;" horiz-adv-x="521" 
d="M134 556l115 140h85l111 -140h-81l-72 89h-2l-73 -89h-83zM288 -6c-142 0 -243 101 -243 249c0 147 101 250 246 250c73 0 148 -30 196 -87l-55 -49c-31 36 -79 62 -137 62c-100 0 -167 -73 -167 -176c0 -104 67 -175 166 -175c58 0 109 25 139 62l56 -51
c-41 -49 -106 -85 -201 -85z" />
    <glyph glyph-name="cdotaccent" unicode="&#x10b;" horiz-adv-x="521" 
d="M290 576c-33 0 -59 26 -59 58s26 58 59 58s59 -26 59 -58s-26 -58 -59 -58zM288 -6c-142 0 -243 101 -243 249c0 147 101 250 246 250c73 0 148 -30 196 -87l-55 -49c-31 36 -79 62 -137 62c-100 0 -167 -73 -167 -176c0 -104 67 -175 166 -175c58 0 109 25 139 62
l56 -51c-41 -49 -106 -85 -201 -85z" />
    <glyph glyph-name="d" unicode="d" horiz-adv-x="613" 
d="M283 -6c-135 0 -239 98 -239 246c0 144 101 253 238 253c74 0 137 -34 174 -93h1v336h81v-736h-78v90h-1c-35 -59 -97 -96 -176 -96zM294 68c92 0 166 69 166 172c0 100 -67 179 -165 179c-93 0 -168 -71 -168 -179c0 -98 68 -172 167 -172z" />
    <glyph glyph-name="eth" unicode="&#xf0;" horiz-adv-x="588" 
d="M434 564c68 -84 109 -188 109 -302c0 -170 -102 -268 -251 -268c-138 0 -247 100 -247 241c0 145 102 246 226 246c68 0 129 -27 168 -70l1 2c-16 39 -38 75 -65 107c-17 21 -37 40 -57 58l-51 -60l-54 40l51 60c-37 25 -78 45 -122 62l32 60c49 -16 95 -39 137 -66
l67 80l55 -38l-69 -82c26 -21 49 -45 70 -70zM292 68c100 0 168 75 168 175c0 95 -72 165 -167 165c-98 0 -166 -76 -166 -168c0 -101 73 -172 165 -172z" />
    <glyph glyph-name="dcaron" unicode="&#x10f;" horiz-adv-x="686" 
d="M612 588l29 184h80l-49 -184h-60zM283 -6c-135 0 -239 98 -239 246c0 144 101 253 238 253c74 0 137 -34 174 -93h1v336h81v-736h-78v90h-1c-35 -59 -97 -96 -176 -96zM294 68c92 0 166 69 166 172c0 100 -67 179 -165 179c-93 0 -168 -71 -168 -179
c0 -98 68 -172 167 -172z" />
    <glyph glyph-name="dcroat" unicode="&#x111;" horiz-adv-x="605" 
d="M600 628v-58h-62v-570h-78v90h-1c-35 -59 -97 -96 -176 -96c-135 0 -239 98 -239 246c0 144 101 253 238 253c74 0 137 -34 174 -93h1v170h-205v58h205v108h81v-108h62zM294 68c92 0 166 69 166 172c0 100 -67 179 -165 179c-93 0 -168 -71 -168 -179
c0 -98 68 -172 167 -172z" />
    <glyph glyph-name="uni1E0D" unicode="&#x1e0d;" horiz-adv-x="613" 
d="M283 -6c-135 0 -239 98 -239 246c0 144 101 253 238 253c74 0 137 -34 174 -93h1v336h81v-736h-78v90h-1c-35 -59 -97 -96 -176 -96zM294 68c92 0 166 69 166 172c0 100 -67 179 -165 179c-93 0 -168 -71 -168 -179c0 -98 68 -172 167 -172zM307 -94c33 0 59 -26 59 -58
s-26 -58 -59 -58s-59 26 -59 58s26 58 59 58z" />
    <glyph glyph-name="uni1E0F" unicode="&#x1e0f;" horiz-adv-x="613" 
d="M283 -6c-135 0 -239 98 -239 246c0 144 101 253 238 253c74 0 137 -34 174 -93h1v336h81v-736h-78v90h-1c-35 -59 -97 -96 -176 -96zM294 68c92 0 166 69 166 172c0 100 -67 179 -165 179c-93 0 -168 -71 -168 -179c0 -98 68 -172 167 -172zM451 -194h-288v69h288v-69z
" />
    <glyph glyph-name="e" unicode="e" horiz-adv-x="552" 
d="M509 252c0 -13 -2 -27 -2 -33h-380c11 -91 75 -151 167 -151c65 0 111 28 141 65l57 -48c-42 -54 -103 -91 -201 -91c-144 0 -246 100 -246 249c0 147 101 250 240 250c133 0 224 -102 224 -241zM284 419c-78 0 -140 -51 -155 -134h299c-12 80 -64 134 -144 134z" />
    <glyph glyph-name="eacute" unicode="&#xe9;" horiz-adv-x="551" 
d="M443 699l-124 -142h-85l118 141zM509 252c0 -13 -2 -27 -2 -33h-380c11 -91 75 -151 167 -151c65 0 111 28 141 65l57 -48c-42 -54 -103 -91 -201 -91c-144 0 -246 100 -246 249c0 147 101 250 240 250c133 0 224 -102 224 -241zM284 419c-78 0 -140 -51 -155 -134h299
c-12 80 -64 134 -144 134z" />
    <glyph glyph-name="ebreve" unicode="&#x115;" horiz-adv-x="552" 
d="M287 552c-84 0 -138 53 -144 142h65c2 -42 31 -78 79 -78c49 0 77 36 79 78h65c-6 -89 -60 -142 -144 -142zM509 252c0 -13 -2 -27 -2 -33h-380c11 -91 75 -151 167 -151c65 0 111 28 141 65l57 -48c-42 -54 -103 -91 -201 -91c-144 0 -246 100 -246 249
c0 147 101 250 240 250c133 0 224 -102 224 -241zM284 419c-78 0 -140 -51 -155 -134h299c-12 80 -64 134 -144 134z" />
    <glyph glyph-name="ecaron" unicode="&#x11b;" horiz-adv-x="552" 
d="M327 555h-85l-111 139h82l72 -88h2l72 88h83zM509 252c0 -13 -2 -27 -2 -33h-380c11 -91 75 -151 167 -151c65 0 111 28 141 65l57 -48c-42 -54 -103 -91 -201 -91c-144 0 -246 100 -246 249c0 147 101 250 240 250c133 0 224 -102 224 -241zM284 419
c-78 0 -140 -51 -155 -134h299c-12 80 -64 134 -144 134z" />
    <glyph glyph-name="ecircumflex" unicode="&#xea;" horiz-adv-x="552" 
d="M287 645l-73 -89h-83l115 140h85l111 -140h-81l-72 89h-2zM509 252c0 -13 -2 -27 -2 -33h-380c11 -91 75 -151 167 -151c65 0 111 28 141 65l57 -48c-42 -54 -103 -91 -201 -91c-144 0 -246 100 -246 249c0 147 101 250 240 250c133 0 224 -102 224 -241zM284 419
c-78 0 -140 -51 -155 -134h299c-12 80 -64 134 -144 134z" />
    <glyph glyph-name="uni1EBF" unicode="&#x1ebf;" horiz-adv-x="552" 
d="M598 785l-124 -142h-64l96 142h92zM288 645l-73 -89h-83l115 140h85l111 -140h-81l-72 89h-2zM285 493c133 0 224 -102 224 -241c0 -13 -2 -27 -2 -33h-380c11 -91 75 -151 167 -151c65 0 111 28 141 65l57 -48c-42 -54 -103 -91 -201 -91c-144 0 -246 100 -246 249
c0 147 101 250 240 250zM284 419c-78 0 -140 -51 -155 -134h299c-12 80 -64 134 -144 134z" />
    <glyph glyph-name="uni1EC7" unicode="&#x1ec7;" horiz-adv-x="552" 
d="M287 645l-73 -89h-83l115 140h85l111 -140h-81l-72 89h-2zM509 252c0 -13 -2 -27 -2 -33h-380c11 -91 75 -151 167 -151c65 0 111 28 141 65l57 -48c-42 -54 -103 -91 -201 -91c-144 0 -246 100 -246 249c0 147 101 250 240 250c133 0 224 -102 224 -241zM284 419
c-78 0 -140 -51 -155 -134h299c-12 80 -64 134 -144 134zM292 -94c33 0 59 -26 59 -58s-26 -58 -59 -58s-59 26 -59 58s26 58 59 58z" />
    <glyph glyph-name="uni1EC1" unicode="&#x1ec1;" horiz-adv-x="552" 
d="M516 643h-65l-123 142h91zM287 646l-73 -89h-83l115 140h85l111 -140h-81l-72 89h-2zM285 493c133 0 224 -102 224 -241c0 -13 -2 -27 -2 -33h-380c11 -91 75 -151 167 -151c65 0 111 28 141 65l57 -48c-42 -54 -103 -91 -201 -91c-144 0 -246 100 -246 249
c0 147 101 250 240 250zM284 419c-78 0 -140 -51 -155 -134h299c-12 80 -64 134 -144 134z" />
    <glyph glyph-name="uni1EC3" unicode="&#x1ec3;" horiz-adv-x="552" 
d="M481 820c48 0 86 -22 86 -74c0 -47 -50 -83 -79 -98h-63c42 30 78 62 77 89c0 20 -15 27 -38 27c-29 0 -56 -8 -84 -31l-19 45c23 20 65 42 120 42zM287 645l-73 -89h-83l115 140h85l111 -140h-81l-72 89h-2zM285 493c133 0 224 -102 224 -241c0 -13 -2 -27 -2 -33h-380
c11 -91 75 -151 167 -151c65 0 111 28 141 65l57 -48c-42 -54 -103 -91 -201 -91c-144 0 -246 100 -246 249c0 147 101 250 240 250zM284 419c-78 0 -140 -51 -155 -134h299c-12 80 -64 134 -144 134z" />
    <glyph glyph-name="uni1EC5" unicode="&#x1ec5;" horiz-adv-x="552" 
d="M220 804c-20 -2 -41 -21 -54 -56l-52 23c19 57 49 94 100 94c22 0 46 -7 76 -26c32 -20 47 -29 63 -29c29 0 46 21 58 56l52 -18c-18 -62 -51 -100 -101 -100c-30 0 -58 16 -83 32c-21 14 -40 25 -59 24zM247 696h85l111 -140h-81l-72 89h-2l-73 -89h-83zM509 252
c0 -13 -2 -27 -2 -33h-380c11 -91 75 -151 167 -151c65 0 111 28 141 65l57 -48c-42 -54 -103 -91 -201 -91c-144 0 -246 100 -246 249c0 147 101 250 240 250c133 0 224 -102 224 -241zM284 419c-78 0 -140 -51 -155 -134h299c-12 80 -64 134 -144 134z" />
    <glyph glyph-name="edieresis" unicode="&#xeb;" horiz-adv-x="552" 
d="M196 577c-33 0 -58 26 -58 58c0 31 25 56 58 56c32 0 58 -26 58 -57s-26 -57 -58 -57zM377 577c-32 0 -58 26 -58 58c0 31 26 56 58 56s58 -26 58 -57s-26 -57 -58 -57zM509 252c0 -13 -2 -27 -2 -33h-380c11 -91 75 -151 167 -151c65 0 111 28 141 65l57 -48
c-42 -54 -103 -91 -201 -91c-144 0 -246 100 -246 249c0 147 101 250 240 250c133 0 224 -102 224 -241zM284 419c-78 0 -140 -51 -155 -134h299c-12 80 -64 134 -144 134z" />
    <glyph glyph-name="edotaccent" unicode="&#x117;" horiz-adv-x="552" 
d="M287 576c-33 0 -59 26 -59 58s26 58 59 58s59 -26 59 -58s-26 -58 -59 -58zM509 252c0 -13 -2 -27 -2 -33h-380c11 -91 75 -151 167 -151c65 0 111 28 141 65l57 -48c-42 -54 -103 -91 -201 -91c-144 0 -246 100 -246 249c0 147 101 250 240 250c133 0 224 -102 224 -241
zM284 419c-78 0 -140 -51 -155 -134h299c-12 80 -64 134 -144 134z" />
    <glyph glyph-name="uni1EB9" unicode="&#x1eb9;" horiz-adv-x="552" 
d="M509 252c0 -13 -2 -27 -2 -33h-380c11 -91 75 -151 167 -151c65 0 111 28 141 65l57 -48c-42 -54 -103 -91 -201 -91c-144 0 -246 100 -246 249c0 147 101 250 240 250c133 0 224 -102 224 -241zM284 419c-78 0 -140 -51 -155 -134h299c-12 80 -64 134 -144 134zM292 -94
c33 0 59 -26 59 -58s-26 -58 -59 -58s-59 26 -59 58s26 58 59 58z" />
    <glyph glyph-name="egrave" unicode="&#xe8;" horiz-adv-x="551" 
d="M352 558h-82l-121 138l92 -1zM509 252c0 -13 -2 -27 -2 -33h-380c11 -91 75 -151 167 -151c65 0 111 28 141 65l57 -48c-42 -54 -103 -91 -201 -91c-144 0 -246 100 -246 249c0 147 101 250 240 250c133 0 224 -102 224 -241zM284 419c-78 0 -140 -51 -155 -134h299
c-12 80 -64 134 -144 134z" />
    <glyph glyph-name="uni1EBB" unicode="&#x1ebb;" horiz-adv-x="552" 
d="M294 676c-30 0 -58 -9 -88 -33l-20 47c24 21 68 44 126 44c51 0 90 -23 90 -77c0 -49 -52 -87 -83 -103h-66c44 32 82 65 81 93c0 21 -16 29 -40 29zM509 252c0 -13 -2 -27 -2 -33h-380c11 -91 75 -151 167 -151c65 0 111 28 141 65l57 -48c-42 -54 -103 -91 -201 -91
c-144 0 -246 100 -246 249c0 147 101 250 240 250c133 0 224 -102 224 -241zM284 419c-78 0 -140 -51 -155 -134h299c-12 80 -64 134 -144 134z" />
    <glyph glyph-name="emacron" unicode="&#x113;" horiz-adv-x="552" 
d="M431 665v-69h-288v69h288zM509 252c0 -13 -2 -27 -2 -33h-380c11 -91 75 -151 167 -151c65 0 111 28 141 65l57 -48c-42 -54 -103 -91 -201 -91c-144 0 -246 100 -246 249c0 147 101 250 240 250c133 0 224 -102 224 -241zM284 419c-78 0 -140 -51 -155 -134h299
c-12 80 -64 134 -144 134z" />
    <glyph glyph-name="eogonek" unicode="&#x119;" horiz-adv-x="551" 
d="M509 252c0 -13 -2 -27 -2 -33h-380c11 -91 75 -151 167 -151c65 0 111 28 141 65l57 -48c-33 -42 -77 -74 -142 -86c-44 -21 -74 -49 -74 -80c0 -25 16 -43 50 -43c26 0 34 3 47 9l6 -55c-18 -8 -41 -13 -69 -13c-66 0 -105 33 -105 85c0 29 18 64 52 92v2
c-126 15 -212 110 -212 247c0 147 101 250 240 250c133 0 224 -102 224 -241zM284 419c-78 0 -140 -51 -155 -134h299c-12 80 -64 134 -144 134z" />
    <glyph glyph-name="uni1EBD" unicode="&#x1ebd;" horiz-adv-x="552" 
d="M219 622c-27 0 -47 -21 -60 -56l-52 23c19 60 53 98 104 98c35 0 59 -14 81 -29c21 -13 41 -29 64 -29c24 0 45 20 58 55l51 -17c-18 -67 -56 -105 -100 -105c-34 0 -63 19 -88 36c-20 13 -39 24 -58 24zM509 252c0 -13 -2 -27 -2 -33h-380c11 -91 75 -151 167 -151
c65 0 111 28 141 65l57 -48c-42 -54 -103 -91 -201 -91c-144 0 -246 100 -246 249c0 147 101 250 240 250c133 0 224 -102 224 -241zM284 419c-78 0 -140 -51 -155 -134h299c-12 80 -64 134 -144 134z" />
    <glyph glyph-name="uni0259" unicode="&#x259;" horiz-adv-x="553" 
d="M259 493c139 0 249 -92 249 -252c0 -143 -84 -247 -235 -247c-146 0 -229 104 -229 238c0 11 2 29 3 36h380c-11 97 -82 152 -173 152c-51 0 -96 -13 -143 -39l-32 66c57 32 118 46 180 46zM273 67c88 0 139 54 152 135h-299c8 -83 62 -135 147 -135z" />
    <glyph glyph-name="f" unicode="f" horiz-adv-x="332" 
d="M96 0v417h-59v70h59v99c0 104 50 157 137 157c49 0 86 -15 113 -32l-18 -69c-31 16 -58 26 -85 26c-40 0 -66 -26 -66 -90v-91h138v-70h-138v-417h-81z" />
    <glyph glyph-name="g" unicode="g" horiz-adv-x="600" 
d="M291 -204c-73 0 -140 18 -198 53l20 72c56 -32 105 -51 175 -51c110 0 163 64 163 146v78h-2c-36 -52 -94 -85 -169 -85c-133 0 -236 96 -236 241c0 139 96 243 233 243c69 0 132 -31 171 -84h2v78h81v-451c0 -140 -70 -240 -240 -240zM290 84c98 0 163 73 163 170
c0 98 -71 164 -162 164c-99 0 -165 -71 -165 -166c0 -103 72 -168 164 -168z" />
    <glyph glyph-name="gbreve" unicode="&#x11f;" horiz-adv-x="600" 
d="M289 552c-84 0 -138 53 -144 142h65c2 -42 31 -78 79 -78c49 0 77 36 79 78h65c-6 -89 -60 -142 -144 -142zM291 -204c-73 0 -140 18 -198 53l20 72c56 -32 105 -51 175 -51c110 0 163 64 163 146v78h-2c-36 -52 -94 -85 -169 -85c-133 0 -236 96 -236 241
c0 139 96 243 233 243c69 0 132 -31 171 -84h2v78h81v-451c0 -140 -70 -240 -240 -240zM290 84c98 0 163 73 163 170c0 98 -71 164 -162 164c-99 0 -165 -71 -165 -166c0 -103 72 -168 164 -168z" />
    <glyph glyph-name="gcaron" unicode="&#x1e7;" horiz-adv-x="600" 
d="M244 555l-111 139h82l72 -88h2l72 88h83l-115 -139h-85zM291 -204c-73 0 -140 18 -198 53l20 72c56 -32 105 -51 175 -51c110 0 163 64 163 146v78h-2c-36 -52 -94 -85 -169 -85c-133 0 -236 96 -236 241c0 139 96 243 233 243c69 0 132 -31 171 -84h2v78h81v-451
c0 -140 -70 -240 -240 -240zM290 84c98 0 163 73 163 170c0 98 -71 164 -162 164c-99 0 -165 -71 -165 -166c0 -103 72 -168 164 -168z" />
    <glyph glyph-name="gcircumflex" unicode="&#x11d;" horiz-adv-x="600" 
d="M133 556l115 140h85l111 -140h-81l-72 89h-2l-73 -89h-83zM291 -204c-73 0 -140 18 -198 53l20 72c56 -32 105 -51 175 -51c110 0 163 64 163 146v78h-2c-36 -52 -94 -85 -169 -85c-133 0 -236 96 -236 241c0 139 96 243 233 243c69 0 132 -31 171 -84h2v78h81v-451
c0 -140 -70 -240 -240 -240zM290 84c98 0 163 73 163 170c0 98 -71 164 -162 164c-99 0 -165 -71 -165 -166c0 -103 72 -168 164 -168z" />
    <glyph glyph-name="gcommaaccent" unicode="&#x123;" horiz-adv-x="600" 
d="M367 715l20 -49c-46 -10 -59 -31 -59 -64c0 -16 2 -28 5 -45h-74c-3 15 -4 31 -4 49c0 66 46 103 112 109zM291 -204c-73 0 -140 18 -198 53l20 72c56 -32 105 -51 175 -51c110 0 163 64 163 146v78h-2c-36 -52 -94 -85 -169 -85c-133 0 -236 96 -236 241
c0 139 96 243 233 243c69 0 132 -31 171 -84h2v78h81v-451c0 -140 -70 -240 -240 -240zM290 84c98 0 163 73 163 170c0 98 -71 164 -162 164c-99 0 -165 -71 -165 -166c0 -103 72 -168 164 -168z" />
    <glyph glyph-name="gdotaccent" unicode="&#x121;" horiz-adv-x="600" 
d="M289 576c-33 0 -59 26 -59 58s26 58 59 58s59 -26 59 -58s-26 -58 -59 -58zM291 -204c-73 0 -140 18 -198 53l20 72c56 -32 105 -51 175 -51c110 0 163 64 163 146v78h-2c-36 -52 -94 -85 -169 -85c-133 0 -236 96 -236 241c0 139 96 243 233 243c69 0 132 -31 171 -84h2
v78h81v-451c0 -140 -70 -240 -240 -240zM290 84c98 0 163 73 163 170c0 98 -71 164 -162 164c-99 0 -165 -71 -165 -166c0 -103 72 -168 164 -168z" />
    <glyph glyph-name="uni1E21" unicode="&#x1e21;" horiz-adv-x="600" 
d="M145 596v69h288v-69h-288zM291 -204c-73 0 -140 18 -198 53l20 72c56 -32 105 -51 175 -51c110 0 163 64 163 146v78h-2c-36 -52 -94 -85 -169 -85c-133 0 -236 96 -236 241c0 139 96 243 233 243c69 0 132 -31 171 -84h2v78h81v-451c0 -140 -70 -240 -240 -240zM290 84
c98 0 163 73 163 170c0 98 -71 164 -162 164c-99 0 -165 -71 -165 -166c0 -103 72 -168 164 -168z" />
    <glyph glyph-name="h" unicode="h" horiz-adv-x="581" 
d="M76 0v736h81v-334h1c38 58 102 91 180 91c105 0 177 -62 177 -201v-292h-81v269c0 110 -49 150 -120 150c-97 0 -157 -64 -157 -174v-245h-81z" />
    <glyph glyph-name="hbar" unicode="&#x127;" horiz-adv-x="581" 
d="M338 493c105 0 177 -62 177 -201v-292h-81v269c0 110 -49 150 -120 150c-97 0 -157 -64 -157 -174v-245h-81v570h-71v58h71v108h81v-108h189v-58h-189v-168h1c38 58 102 91 180 91z" />
    <glyph glyph-name="uni1E2B" unicode="&#x1e2b;" horiz-adv-x="581" 
d="M76 0v736h81v-334h1c38 58 102 91 180 91c105 0 177 -62 177 -201v-292h-81v269c0 110 -49 150 -120 150c-97 0 -157 -64 -157 -174v-245h-81zM289 -220c-84 0 -138 53 -144 142h65c2 -42 30 -78 79 -78c48 0 77 36 79 78h65c-6 -89 -60 -142 -144 -142z" />
    <glyph glyph-name="hcircumflex" unicode="&#x125;" horiz-adv-x="581" 
d="M75 793l116 124h85l113 -124h-81l-74 78h-2l-74 -78h-83zM76 0v736h81v-334h1c38 58 102 91 180 91c105 0 177 -62 177 -201v-292h-81v269c0 110 -49 150 -120 150c-97 0 -157 -64 -157 -174v-245h-81z" />
    <glyph glyph-name="uni1E25" unicode="&#x1e25;" horiz-adv-x="581" 
d="M76 0v736h81v-334h1c38 58 102 91 180 91c105 0 177 -62 177 -201v-292h-81v269c0 110 -49 150 -120 150c-97 0 -157 -64 -157 -174v-245h-81zM289 -94c33 0 59 -26 59 -58s-26 -58 -59 -58s-59 26 -59 58s26 58 59 58z" />
    <glyph glyph-name="i" unicode="i" horiz-adv-x="245" 
d="M123 576c-33 0 -59 26 -59 58s26 58 59 58s59 -26 59 -58s-26 -58 -59 -58zM82 0v487h81v-487h-81z" />
    <glyph glyph-name="dotlessi" unicode="&#x131;" horiz-adv-x="245" 
d="M82 0v487h81v-487h-81z" />
    <glyph glyph-name="iacute" unicode="&#xed;" horiz-adv-x="245" 
d="M86 557l118 141l91 1l-124 -142h-85zM82 0v487h81v-487h-81z" />
    <glyph glyph-name="ibreve" unicode="&#x12d;" horiz-adv-x="245" 
d="M123 554c-70 0 -126 49 -132 140h65c3 -46 24 -81 67 -81c41 0 64 33 66 81h65c-5 -85 -54 -140 -131 -140zM82 0v487h81v-487h-81z" />
    <glyph glyph-name="uni01D0" unicode="&#x1d0;" horiz-adv-x="245" 
d="M78 555l-111 139h82l72 -88h2l72 88h83l-115 -139h-85zM82 0v487h81v-487h-81z" />
    <glyph glyph-name="icircumflex" unicode="&#xee;" horiz-adv-x="245" 
d="M-33 556l115 140h85l111 -140h-81l-72 89h-2l-73 -89h-83zM82 0v487h81v-487h-81z" />
    <glyph glyph-name="idieresis" unicode="&#xef;" horiz-adv-x="245" 
d="M32 577c-33 0 -58 26 -58 58c0 31 25 56 58 56c32 0 58 -26 58 -57s-26 -57 -58 -57zM213 577c-32 0 -58 26 -58 58c0 31 26 56 58 56s58 -26 58 -57s-26 -57 -58 -57zM82 0v487h81v-487h-81z" />
    <glyph glyph-name="i.loclTRK" horiz-adv-x="245" 
d="M123 576c-33 0 -59 26 -59 58s26 58 59 58s59 -26 59 -58s-26 -58 -59 -58zM82 0v487h81v-487h-81z" />
    <glyph glyph-name="uni1ECB" unicode="&#x1ecb;" horiz-adv-x="245" 
d="M123 576c-33 0 -59 26 -59 58s26 58 59 58s59 -26 59 -58s-26 -58 -59 -58zM82 0v487h81v-487h-81zM123 -94c33 0 59 -26 59 -58s-26 -58 -59 -58s-59 26 -59 58s26 58 59 58z" />
    <glyph glyph-name="igrave" unicode="&#xec;" horiz-adv-x="246" 
d="M79 557l-90 142l91 -1l83 -141h-84zM82 0v487h81v-487h-81z" />
    <glyph glyph-name="uni1EC9" unicode="&#x1ec9;" horiz-adv-x="245" 
d="M89 554c44 32 82 65 81 93c0 21 -16 29 -40 29c-30 0 -58 -9 -88 -33l-20 47c24 21 68 44 126 44c51 0 90 -23 90 -77c0 -49 -52 -87 -83 -103h-66zM82 0v487h81v-487h-81z" />
    <glyph glyph-name="ij" unicode="&#x133;" horiz-adv-x="469" 
d="M123 576c-33 0 -59 26 -59 58s26 58 59 58s59 -26 59 -58s-26 -58 -59 -58zM359 576c-33 0 -59 26 -59 58s26 58 59 58s59 -26 59 -58s-26 -58 -59 -58zM82 0v487h81v-487h-81zM277 -204c-29 0 -53 3 -84 16l13 72c16 -10 39 -15 55 -15c36 0 58 24 58 80v538h81v-538
c0 -95 -46 -153 -123 -153z" />
    <glyph glyph-name="imacron" unicode="&#x12b;" horiz-adv-x="245" 
d="M-21 596v69h288v-69h-288zM82 0v487h81v-487h-81z" />
    <glyph glyph-name="iogonek" unicode="&#x12f;" horiz-adv-x="245" 
d="M123 576c-33 0 -59 26 -59 58s26 58 59 58s59 -26 59 -58s-26 -58 -59 -58zM126 -130c26 0 34 3 47 9l6 -52c-18 -8 -41 -13 -69 -13c-61 0 -99 32 -99 84c0 34 24 77 71 107v482h81v-487h-7c-49 -16 -79 -52 -79 -85c0 -27 16 -45 49 -45z" />
    <glyph glyph-name="itilde" unicode="&#x129;" horiz-adv-x="245" 
d="M201 562c-34 0 -63 19 -88 36c-20 13 -39 24 -58 24c-27 0 -47 -21 -60 -56l-52 23c19 60 53 98 104 98c35 0 59 -14 81 -29c21 -13 41 -29 64 -29c24 0 45 20 58 55l51 -17c-18 -67 -56 -105 -100 -105zM82 0v487h81v-487h-81z" />
    <glyph glyph-name="j" unicode="j" horiz-adv-x="224" 
d="M114 576c-33 0 -59 26 -59 58s26 58 59 58s59 -26 59 -58s-26 -58 -59 -58zM32 -204c-29 0 -53 3 -84 16l13 72c16 -10 39 -15 55 -15c36 0 58 24 58 80v538h81v-538c0 -95 -46 -153 -123 -153z" />
    <glyph glyph-name="uni0237" unicode="&#x237;" horiz-adv-x="224" 
d="M32 -204c-29 0 -53 3 -84 16l13 72c16 -10 39 -15 55 -15c36 0 58 24 58 80v538h81v-538c0 -95 -46 -153 -123 -153z" />
    <glyph glyph-name="uni006A0301" horiz-adv-x="224" 
d="M77 568l118 141l91 1l-124 -142h-85zM32 -204c-29 0 -53 3 -84 16l13 72c16 -10 39 -15 55 -15c36 0 58 24 58 80v538h81v-538c0 -95 -46 -153 -123 -153z" />
    <glyph glyph-name="jcircumflex" unicode="&#x135;" horiz-adv-x="224" 
d="M-42 556l115 140h85l111 -140h-81l-72 89h-2l-73 -89h-83zM32 -204c-29 0 -53 3 -84 16l13 72c16 -10 39 -15 55 -15c36 0 58 24 58 80v538h81v-538c0 -95 -46 -153 -123 -153z" />
    <glyph glyph-name="k" unicode="k" horiz-adv-x="517" 
d="M76 0v736h81v-515l1 -1l239 267h98l-182 -201l184 -286h-93l-147 229l-100 -108v-121h-81z" />
    <glyph glyph-name="kcommaaccent" unicode="&#x137;" horiz-adv-x="517" 
d="M76 0v736h81v-515l1 -1l239 267h98l-182 -201l184 -286h-93l-147 229l-100 -108v-121h-81zM200 -212l-20 49c46 10 59 31 59 64c0 16 -2 28 -5 45h74c3 -15 4 -31 4 -49c0 -66 -46 -103 -112 -109z" />
    <glyph glyph-name="kgreenlandic" unicode="&#x138;" horiz-adv-x="539" 
d="M76 0v487h81v-268h1l249 268h102l-199 -211l210 -276h-100l-164 222l-99 -105v-117h-81z" />
    <glyph glyph-name="l" unicode="l" horiz-adv-x="245" 
d="M82 0v736h81v-736h-81z" />
    <glyph glyph-name="lacute" unicode="&#x13a;" horiz-adv-x="245" 
d="M80 795l112 129h93l-122 -129h-83zM82 0v736h81v-736h-81z" />
    <glyph glyph-name="lcaron" unicode="&#x13e;" horiz-adv-x="310" 
d="M237 588l29 184h80l-49 -184h-60zM82 0v736h81v-736h-81z" />
    <glyph glyph-name="lcommaaccent" unicode="&#x13c;" horiz-adv-x="245" 
d="M82 0v736h81v-736h-81zM50 -212l-20 49c46 10 59 31 59 64c0 16 -2 28 -5 45h74c3 -15 4 -31 4 -49c0 -66 -46 -103 -112 -109z" />
    <glyph glyph-name="ldot" unicode="&#x140;" horiz-adv-x="370" 
d="M82 0v736h81v-736h-81zM307 196c-33 0 -60 26 -60 59s27 59 60 59s59 -26 59 -59s-26 -59 -59 -59z" />
    <glyph glyph-name="uni1E37" unicode="&#x1e37;" horiz-adv-x="245" 
d="M82 0v736h81v-736h-81zM128 -94c33 0 59 -26 59 -58s-26 -58 -59 -58s-59 26 -59 58s26 58 59 58z" />
    <glyph glyph-name="uni1E39" unicode="&#x1e39;" horiz-adv-x="245" 
d="M-18 822v67h288v-67h-288zM82 0v736h81v-736h-81zM128 -94c33 0 59 -26 59 -58s-26 -58 -59 -58s-59 26 -59 58s26 58 59 58z" />
    <glyph glyph-name="uni1E3B" unicode="&#x1e3b;" horiz-adv-x="245" 
d="M82 0v736h81v-736h-81zM272 -194h-288v69h288v-69z" />
    <glyph glyph-name="lslash" unicode="&#x142;" horiz-adv-x="274" 
d="M255 404v-66l-74 -31v-307h-81v273l-80 -34v66l80 34v397h81v-363z" />
    <glyph glyph-name="m" unicode="m" horiz-adv-x="885" 
d="M76 0v487h81v-88h1c37 59 98 94 163 94c73 0 126 -37 151 -104h1c37 66 103 104 179 104c108 0 168 -74 168 -213v-280h-81v258c0 104 -37 161 -111 161c-76 0 -137 -68 -137 -177v-242h-81v258c0 104 -40 161 -113 161c-80 0 -140 -68 -140 -177v-242h-81z" />
    <glyph glyph-name="uni1E43" unicode="&#x1e43;" horiz-adv-x="885" 
d="M76 0v487h81v-88h1c37 59 98 94 163 94c73 0 126 -37 151 -104h1c37 66 103 104 179 104c108 0 168 -74 168 -213v-280h-81v258c0 104 -37 161 -111 161c-76 0 -137 -68 -137 -177v-242h-81v258c0 104 -40 161 -113 161c-80 0 -140 -68 -140 -177v-242h-81zM452 -94
c33 0 59 -26 59 -58s-26 -58 -59 -58s-59 26 -59 58s26 58 59 58z" />
    <glyph glyph-name="n" unicode="n" horiz-adv-x="576" 
d="M76 0v487h81v-88h1c38 59 102 94 177 94c105 0 175 -65 175 -204v-289h-81v266c0 114 -49 153 -120 153c-92 0 -152 -66 -152 -176v-243h-81z" />
    <glyph glyph-name="nacute" unicode="&#x144;" horiz-adv-x="576" 
d="M232 557l118 141l91 1l-124 -142h-85zM76 0v487h81v-88h1c38 59 102 94 177 94c105 0 175 -65 175 -204v-289h-81v266c0 114 -49 153 -120 153c-92 0 -152 -66 -152 -176v-243h-81z" />
    <glyph glyph-name="napostrophe" unicode="&#x149;" horiz-adv-x="647" 
d="M3 516l29 194h79l-48 -194h-60zM147 0v487h81v-88h1c38 59 102 94 177 94c105 0 175 -65 175 -204v-289h-81v266c0 114 -49 153 -120 153c-92 0 -152 -66 -152 -176v-243h-81z" />
    <glyph glyph-name="ncaron" unicode="&#x148;" horiz-adv-x="576" 
d="M246 555l-111 139h82l72 -88h2l72 88h83l-115 -139h-85zM76 0v487h81v-88h1c38 59 102 94 177 94c105 0 175 -65 175 -204v-289h-81v266c0 114 -49 153 -120 153c-92 0 -152 -66 -152 -176v-243h-81z" />
    <glyph glyph-name="ncommaaccent" unicode="&#x146;" horiz-adv-x="576" 
d="M76 0v487h81v-88h1c38 59 102 94 177 94c105 0 175 -65 175 -204v-289h-81v266c0 114 -49 153 -120 153c-92 0 -152 -66 -152 -176v-243h-81zM226 -212l-20 49c46 10 59 31 59 64c0 16 -2 28 -5 45h74c3 -15 4 -31 4 -49c0 -66 -46 -103 -112 -109z" />
    <glyph glyph-name="uni1E45" unicode="&#x1e45;" horiz-adv-x="576" 
d="M291 576c-33 0 -59 26 -59 58s26 58 59 58s59 -26 59 -58s-26 -58 -59 -58zM76 0v487h81v-88h1c38 59 102 94 177 94c105 0 175 -65 175 -204v-289h-81v266c0 114 -49 153 -120 153c-92 0 -152 -66 -152 -176v-243h-81z" />
    <glyph glyph-name="uni1E47" unicode="&#x1e47;" horiz-adv-x="576" 
d="M76 0v487h81v-88h1c38 59 102 94 177 94c105 0 175 -65 175 -204v-289h-81v266c0 114 -49 153 -120 153c-92 0 -152 -66 -152 -176v-243h-81zM304 -94c33 0 59 -26 59 -58s-26 -58 -59 -58s-59 26 -59 58s26 58 59 58z" />
    <glyph glyph-name="eng" unicode="&#x14b;" horiz-adv-x="573" 
d="M344 -204c-24 0 -46 4 -71 14l6 66c21 -8 40 -11 55 -11c66 0 92 28 92 107v294c0 114 -48 153 -119 153c-90 0 -150 -66 -150 -176v-243h-81v487h81v-88h1c38 59 100 94 174 94c105 0 175 -65 175 -204v-310c0 -123 -51 -183 -163 -183z" />
    <glyph glyph-name="uni0272" unicode="&#x272;" horiz-adv-x="576" 
d="M335 493c105 0 175 -65 175 -204v-289h-81v266c0 114 -49 153 -120 153c-92 0 -152 -66 -152 -176v-285c0 -101 -41 -162 -131 -162c-23 0 -46 4 -71 14l6 66c19 -8 37 -11 52 -11c41 0 63 28 63 86v536h81v-88h1c38 59 102 94 177 94z" />
    <glyph glyph-name="uni1E49" unicode="&#x1e49;" horiz-adv-x="576" 
d="M76 0v487h81v-88h1c38 59 102 94 177 94c105 0 175 -65 175 -204v-289h-81v266c0 114 -49 153 -120 153c-92 0 -152 -66 -152 -176v-243h-81zM448 -194h-288v69h288v-69z" />
    <glyph glyph-name="ntilde" unicode="&#xf1;" horiz-adv-x="576" 
d="M369 562c-34 0 -63 19 -88 36c-20 13 -39 24 -58 24c-27 0 -47 -21 -60 -56l-52 23c19 60 53 98 104 98c35 0 59 -14 81 -29c21 -13 41 -29 64 -29c24 0 45 20 58 55l51 -17c-18 -67 -56 -105 -100 -105zM76 0v487h81v-88h1c38 59 102 94 177 94c105 0 175 -65 175 -204
v-289h-81v266c0 114 -49 153 -120 153c-92 0 -152 -66 -152 -176v-243h-81z" />
    <glyph glyph-name="o" unicode="o" horiz-adv-x="593" 
d="M297 -6c-151 0 -252 109 -252 249s101 250 252 250c144 0 251 -102 251 -250s-107 -249 -251 -249zM297 68c93 0 168 71 168 175s-74 176 -168 176c-102 0 -169 -79 -169 -176s68 -175 169 -175z" />
    <glyph glyph-name="oacute" unicode="&#xf3;" horiz-adv-x="593" 
d="M252 557l118 141l91 1l-124 -142h-85zM297 -6c-151 0 -252 109 -252 249s101 250 252 250c144 0 251 -102 251 -250s-107 -249 -251 -249zM297 68c93 0 168 71 168 175s-74 176 -168 176c-102 0 -169 -79 -169 -176s68 -175 169 -175z" />
    <glyph glyph-name="obreve" unicode="&#x14f;" horiz-adv-x="593" 
d="M297 552c-84 0 -138 53 -144 142h65c2 -42 31 -78 79 -78c49 0 77 36 79 78h65c-6 -89 -60 -142 -144 -142zM297 -6c-151 0 -252 109 -252 249s101 250 252 250c144 0 251 -102 251 -250s-107 -249 -251 -249zM297 68c93 0 168 71 168 175s-74 176 -168 176
c-102 0 -169 -79 -169 -176s68 -175 169 -175z" />
    <glyph glyph-name="uni01D2" unicode="&#x1d2;" horiz-adv-x="593" 
d="M252 555l-111 139h82l72 -88h2l72 88h83l-115 -139h-85zM297 -6c-151 0 -252 109 -252 249s101 250 252 250c144 0 251 -102 251 -250s-107 -249 -251 -249zM297 68c93 0 168 71 168 175s-74 176 -168 176c-102 0 -169 -79 -169 -176s68 -175 169 -175z" />
    <glyph glyph-name="ocircumflex" unicode="&#xf4;" horiz-adv-x="593" 
d="M141 556l115 140h85l111 -140h-81l-72 89h-2l-73 -89h-83zM297 -6c-151 0 -252 109 -252 249s101 250 252 250c144 0 251 -102 251 -250s-107 -249 -251 -249zM297 68c93 0 168 71 168 175s-74 176 -168 176c-102 0 -169 -79 -169 -176s68 -175 169 -175z" />
    <glyph glyph-name="uni1ED1" unicode="&#x1ed1;" horiz-adv-x="593" 
d="M420 643l96 142h92l-124 -142h-64zM142 556l115 140h85l111 -140h-81l-72 89h-2l-73 -89h-83zM297 -6c-151 0 -252 109 -252 249s101 250 252 250c144 0 251 -102 251 -250s-107 -249 -251 -249zM297 68c93 0 168 71 168 175s-74 176 -168 176c-102 0 -169 -79 -169 -176
s68 -175 169 -175z" />
    <glyph glyph-name="uni1ED9" unicode="&#x1ed9;" horiz-adv-x="593" 
d="M141 556l115 140h85l111 -140h-81l-72 89h-2l-73 -89h-83zM297 -6c-151 0 -252 109 -252 249s101 250 252 250c144 0 251 -102 251 -250s-107 -249 -251 -249zM297 68c93 0 168 71 168 175s-74 176 -168 176c-102 0 -169 -79 -169 -176s68 -175 169 -175zM297 -94
c33 0 59 -26 59 -58s-26 -58 -59 -58s-59 26 -59 58s26 58 59 58z" />
    <glyph glyph-name="uni1ED3" unicode="&#x1ed3;" horiz-adv-x="593" 
d="M461 643l-123 142h91l97 -142h-65zM141 557l115 140h85l111 -140h-81l-72 89h-2l-73 -89h-83zM297 -6c-151 0 -252 109 -252 249s101 250 252 250c144 0 251 -102 251 -250s-107 -249 -251 -249zM297 68c93 0 168 71 168 175s-74 176 -168 176c-102 0 -169 -79 -169 -176
s68 -175 169 -175z" />
    <glyph glyph-name="uni1ED5" unicode="&#x1ed5;" horiz-adv-x="593" 
d="M435 648c42 30 78 62 77 89c0 20 -15 27 -38 27c-29 0 -56 -8 -84 -31l-19 45c23 20 65 42 120 42c48 0 86 -22 86 -74c0 -47 -50 -83 -79 -98h-63zM141 556l115 140h85l111 -140h-81l-72 89h-2l-73 -89h-83zM297 -6c-151 0 -252 109 -252 249s101 250 252 250
c144 0 251 -102 251 -250s-107 -249 -251 -249zM297 68c93 0 168 71 168 175s-74 176 -168 176c-102 0 -169 -79 -169 -176s68 -175 169 -175z" />
    <glyph glyph-name="uni1ED7" unicode="&#x1ed7;" horiz-adv-x="593" 
d="M176 748l-52 23c19 57 49 94 100 94c22 0 46 -7 76 -26c32 -20 47 -29 63 -29c29 0 46 21 58 56l52 -18c-18 -62 -51 -100 -101 -100c-30 0 -58 16 -83 32c-21 14 -40 25 -59 24c-20 -2 -41 -21 -54 -56zM142 556l115 140h85l111 -140h-81l-72 89h-2l-73 -89h-83zM297 -6
c-151 0 -252 109 -252 249s101 250 252 250c144 0 251 -102 251 -250s-107 -249 -251 -249zM297 68c93 0 168 71 168 175s-74 176 -168 176c-102 0 -169 -79 -169 -176s68 -175 169 -175z" />
    <glyph glyph-name="odieresis" unicode="&#xf6;" horiz-adv-x="593" 
d="M206 577c-33 0 -58 26 -58 58c0 31 25 56 58 56c32 0 58 -26 58 -57s-26 -57 -58 -57zM387 577c-32 0 -58 26 -58 58c0 31 26 56 58 56s58 -26 58 -57s-26 -57 -58 -57zM297 -6c-151 0 -252 109 -252 249s101 250 252 250c144 0 251 -102 251 -250s-107 -249 -251 -249z
M297 68c93 0 168 71 168 175s-74 176 -168 176c-102 0 -169 -79 -169 -176s68 -175 169 -175z" />
    <glyph glyph-name="uni1ECD" unicode="&#x1ecd;" horiz-adv-x="593" 
d="M297 -6c-151 0 -252 109 -252 249s101 250 252 250c144 0 251 -102 251 -250s-107 -249 -251 -249zM297 68c93 0 168 71 168 175s-74 176 -168 176c-102 0 -169 -79 -169 -176s68 -175 169 -175zM297 -94c33 0 59 -26 59 -58s-26 -58 -59 -58s-59 26 -59 58s26 58 59 58z
" />
    <glyph glyph-name="ograve" unicode="&#xf2;" horiz-adv-x="593" 
d="M273 558l-121 138l92 -1l111 -137h-82zM297 -6c-151 0 -252 109 -252 249s101 250 252 250c144 0 251 -102 251 -250s-107 -249 -251 -249zM297 68c93 0 168 71 168 175s-74 176 -168 176c-102 0 -169 -79 -169 -176s68 -175 169 -175z" />
    <glyph glyph-name="uni1ECF" unicode="&#x1ecf;" horiz-adv-x="593" 
d="M263 554c44 32 82 65 81 93c0 21 -16 29 -40 29c-30 0 -58 -9 -88 -33l-20 47c24 21 68 44 126 44c51 0 90 -23 90 -77c0 -49 -52 -87 -83 -103h-66zM297 -6c-151 0 -252 109 -252 249s101 250 252 250c144 0 251 -102 251 -250s-107 -249 -251 -249zM297 68
c93 0 168 71 168 175s-74 176 -168 176c-102 0 -169 -79 -169 -176s68 -175 169 -175z" />
    <glyph glyph-name="ohorn" unicode="&#x1a1;" horiz-adv-x="669" 
d="M568 565h83v-73c0 -98 -40 -156 -113 -172c6 -24 10 -50 10 -77c0 -148 -107 -249 -251 -249c-151 0 -252 109 -252 249s101 250 252 250c96 0 175 -45 218 -119c45 14 53 55 53 122v69zM297 68c93 0 168 71 168 175s-74 176 -168 176c-102 0 -169 -79 -169 -176
s68 -175 169 -175z" />
    <glyph glyph-name="uni1EDB" unicode="&#x1edb;" horiz-adv-x="669" 
d="M461 699l-124 -142h-85l118 141zM568 565h83v-73c0 -98 -40 -156 -113 -172c6 -24 10 -50 10 -77c0 -148 -107 -249 -251 -249c-151 0 -252 109 -252 249s101 250 252 250c96 0 175 -45 218 -119c45 14 53 55 53 122v69zM297 68c93 0 168 71 168 175s-74 176 -168 176
c-102 0 -169 -79 -169 -176s68 -175 169 -175z" />
    <glyph glyph-name="uni1EE3" unicode="&#x1ee3;" horiz-adv-x="669" 
d="M568 565h83v-73c0 -98 -40 -156 -113 -172c6 -24 10 -50 10 -77c0 -148 -107 -249 -251 -249c-151 0 -252 109 -252 249s101 250 252 250c96 0 175 -45 218 -119c45 14 53 55 53 122v69zM297 68c93 0 168 71 168 175s-74 176 -168 176c-102 0 -169 -79 -169 -176
s68 -175 169 -175zM297 -94c33 0 59 -26 59 -58s-26 -58 -59 -58s-59 26 -59 58s26 58 59 58z" />
    <glyph glyph-name="uni1EDD" unicode="&#x1edd;" horiz-adv-x="669" 
d="M355 558h-82l-121 138l92 -1zM568 565h83v-73c0 -98 -40 -156 -113 -172c6 -24 10 -50 10 -77c0 -148 -107 -249 -251 -249c-151 0 -252 109 -252 249s101 250 252 250c96 0 175 -45 218 -119c45 14 53 55 53 122v69zM297 68c93 0 168 71 168 175s-74 176 -168 176
c-102 0 -169 -79 -169 -176s68 -175 169 -175z" />
    <glyph glyph-name="uni1EDF" unicode="&#x1edf;" horiz-adv-x="669" 
d="M304 676c-30 0 -58 -9 -88 -33l-20 47c24 21 68 44 126 44c51 0 90 -23 90 -77c0 -49 -52 -87 -83 -103h-66c44 32 82 65 81 93c0 21 -16 29 -40 29zM568 565h83v-73c0 -98 -40 -156 -113 -172c6 -24 10 -50 10 -77c0 -148 -107 -249 -251 -249c-151 0 -252 109 -252 249
s101 250 252 250c96 0 175 -45 218 -119c45 14 53 55 53 122v69zM297 68c93 0 168 71 168 175s-74 176 -168 176c-102 0 -169 -79 -169 -176s68 -175 169 -175z" />
    <glyph glyph-name="uni1EE1" unicode="&#x1ee1;" horiz-adv-x="669" 
d="M229 622c-27 0 -47 -21 -60 -56l-52 23c19 60 53 98 104 98c35 0 59 -14 81 -29c21 -13 41 -29 64 -29c24 0 45 20 58 55l51 -17c-18 -67 -56 -105 -100 -105c-34 0 -63 19 -88 36c-20 13 -39 24 -58 24zM568 565h83v-73c0 -98 -40 -156 -113 -172c6 -24 10 -50 10 -77
c0 -148 -107 -249 -251 -249c-151 0 -252 109 -252 249s101 250 252 250c96 0 175 -45 218 -119c45 14 53 55 53 122v69zM297 68c93 0 168 71 168 175s-74 176 -168 176c-102 0 -169 -79 -169 -176s68 -175 169 -175z" />
    <glyph glyph-name="ohungarumlaut" unicode="&#x151;" horiz-adv-x="593" 
d="M173 557l118 141l85 1l-124 -142h-79zM341 557l117 141l85 1l-124 -142h-78zM297 -6c-151 0 -252 109 -252 249s101 250 252 250c144 0 251 -102 251 -250s-107 -249 -251 -249zM297 68c93 0 168 71 168 175s-74 176 -168 176c-102 0 -169 -79 -169 -176
s68 -175 169 -175z" />
    <glyph glyph-name="omacron" unicode="&#x14d;" horiz-adv-x="593" 
d="M153 596v69h288v-69h-288zM297 -6c-151 0 -252 109 -252 249s101 250 252 250c144 0 251 -102 251 -250s-107 -249 -251 -249zM297 68c93 0 168 71 168 175s-74 176 -168 176c-102 0 -169 -79 -169 -176s68 -175 169 -175z" />
    <glyph glyph-name="uni01EB" unicode="&#x1eb;" horiz-adv-x="593" 
d="M332 -4c-42 -18 -68 -50 -68 -81c0 -27 16 -45 49 -45c26 0 34 3 47 9l6 -52c-18 -8 -41 -13 -69 -13c-61 0 -99 32 -99 84c0 31 20 69 59 98l-1 1c-128 17 -211 119 -211 246c0 140 101 250 252 250c144 0 251 -102 251 -250c0 -136 -90 -232 -216 -247zM128 243
c0 -97 68 -175 169 -175c93 0 168 71 168 175s-74 176 -168 176c-102 0 -169 -79 -169 -176z" />
    <glyph glyph-name="oslash" unicode="&#xf8;" horiz-adv-x="593" 
d="M556 465l-60 -64c33 -41 52 -96 52 -158c0 -148 -107 -249 -251 -249c-56 0 -105 15 -145 41l-54 -57l-45 42l52 56c-38 44 -60 102 -60 167c0 140 101 250 252 250c60 0 113 -18 155 -49l59 63zM128 243c0 -41 12 -78 33 -108l237 251c-28 21 -63 33 -101 33
c-102 0 -169 -79 -169 -176zM465 243c0 37 -9 70 -26 98l-233 -248c26 -16 56 -25 91 -25c93 0 168 71 168 175z" />
    <glyph glyph-name="oslashacute" unicode="&#x1ff;" horiz-adv-x="593" 
d="M461 699l-124 -142h-85l118 141zM556 465l-60 -64c33 -41 52 -96 52 -158c0 -148 -107 -249 -251 -249c-56 0 -105 15 -145 41l-54 -57l-45 42l52 56c-38 44 -60 102 -60 167c0 140 101 250 252 250c60 0 113 -18 155 -49l59 63zM128 243c0 -41 12 -78 33 -108l237 251
c-28 21 -63 33 -101 33c-102 0 -169 -79 -169 -176zM465 243c0 37 -9 70 -26 98l-233 -248c26 -16 56 -25 91 -25c93 0 168 71 168 175z" />
    <glyph glyph-name="otilde" unicode="&#xf5;" horiz-adv-x="593" 
d="M375 562c-34 0 -63 19 -88 36c-20 13 -39 24 -58 24c-27 0 -47 -21 -60 -56l-52 23c19 60 53 98 104 98c35 0 59 -14 81 -29c21 -13 41 -29 64 -29c24 0 45 20 58 55l51 -17c-18 -67 -56 -105 -100 -105zM297 -6c-151 0 -252 109 -252 249s101 250 252 250
c144 0 251 -102 251 -250s-107 -249 -251 -249zM297 68c93 0 168 71 168 175s-74 176 -168 176c-102 0 -169 -79 -169 -176s68 -175 169 -175z" />
    <glyph glyph-name="oe" unicode="&#x153;" horiz-adv-x="815" 
d="M785 251c0 -13 -1 -25 -2 -31h-329c7 -93 57 -152 142 -152c56 0 92 28 118 65l57 -48c-38 -54 -93 -91 -179 -91c-93 0 -150 46 -182 107h-2c-29 -67 -96 -107 -165 -107c-130 0 -211 100 -211 248c0 144 84 251 211 251c81 0 137 -45 165 -108h2c33 66 92 108 179 108
c117 0 196 -102 196 -242zM242 67c71 0 128 72 128 176s-54 176 -124 176c-77 0 -131 -75 -131 -176c0 -104 49 -176 127 -176zM455 283h249c-7 82 -49 136 -117 136c-78 0 -122 -54 -132 -136z" />
    <glyph glyph-name="p" unicode="p" horiz-adv-x="614" 
d="M76 -198v685h81v-86h1c37 58 99 92 173 92c138 0 237 -109 237 -253c0 -148 -103 -246 -237 -246c-77 0 -137 34 -173 90h-1v-282h-81zM320 68c98 0 166 74 166 172c0 108 -75 179 -167 179c-99 0 -166 -79 -166 -179c0 -103 74 -172 167 -172z" />
    <glyph glyph-name="thorn" unicode="&#xfe;" horiz-adv-x="614" 
d="M76 -198v934h81v-334h1c37 58 99 91 173 91c138 0 237 -109 237 -253c0 -148 -103 -246 -237 -246c-77 0 -138 34 -173 90l-1 -1v-281h-81zM320 68c98 0 166 74 166 172c0 108 -75 179 -167 179c-99 0 -166 -79 -166 -179c0 -103 74 -172 167 -172z" />
    <glyph glyph-name="q" unicode="q" horiz-adv-x="611" 
d="M458 -198v282h-1c-36 -56 -97 -90 -174 -90c-134 0 -237 98 -237 246c0 144 99 253 237 253c74 0 137 -34 174 -93h1v87h81v-685h-81zM295 68c91 0 165 69 165 172c0 100 -67 179 -165 179c-93 0 -167 -71 -167 -179c0 -98 67 -172 167 -172z" />
    <glyph glyph-name="r" unicode="r" horiz-adv-x="353" 
d="M76 0v487h81v-89h2c35 59 91 95 158 95c7 0 13 0 20 -1v-90c-12 1 -24 2 -32 2c-93 0 -148 -71 -148 -169v-235h-81z" />
    <glyph glyph-name="racute" unicode="&#x155;" horiz-adv-x="353" 
d="M123 557l118 141l91 1l-124 -142h-85zM76 0v487h81v-89h2c35 59 91 95 158 95c7 0 13 0 20 -1v-90c-12 1 -24 2 -32 2c-93 0 -148 -71 -148 -169v-235h-81z" />
    <glyph glyph-name="rcaron" unicode="&#x159;" horiz-adv-x="353" 
d="M167 555l-111 139h82l72 -88h2l72 88h83l-115 -139h-85zM76 0v487h81v-89h2c35 59 91 95 158 95c7 0 13 0 20 -1v-90c-12 1 -24 2 -32 2c-93 0 -148 -71 -148 -169v-235h-81z" />
    <glyph glyph-name="rcommaaccent" unicode="&#x157;" horiz-adv-x="353" 
d="M76 0v487h81v-89h2c35 59 91 95 158 95c7 0 13 0 20 -1v-90c-12 1 -24 2 -32 2c-93 0 -148 -71 -148 -169v-235h-81zM45 -212l-20 49c46 10 59 31 59 64c0 16 -2 28 -5 45h74c3 -15 4 -31 4 -49c0 -66 -46 -103 -112 -109z" />
    <glyph glyph-name="uni1E5B" unicode="&#x1e5b;" horiz-adv-x="353" 
d="M76 0v487h81v-89h2c35 59 91 95 158 95c7 0 13 0 20 -1v-90c-12 1 -24 2 -32 2c-93 0 -148 -71 -148 -169v-235h-81zM123 -94c33 0 59 -26 59 -58s-26 -58 -59 -58s-59 26 -59 58s26 58 59 58z" />
    <glyph glyph-name="uni1E5D" unicode="&#x1e5d;" horiz-adv-x="353" 
d="M68 596v69h288v-69h-288zM76 0v487h81v-89h2c35 59 91 95 158 95c7 0 13 0 20 -1v-90c-12 1 -24 2 -32 2c-93 0 -148 -71 -148 -169v-235h-81zM123 -94c33 0 59 -26 59 -58s-26 -58 -59 -58s-59 26 -59 58s26 58 59 58z" />
    <glyph glyph-name="uni1E5F" unicode="&#x1e5f;" horiz-adv-x="353" 
d="M76 0v487h81v-89h2c35 59 91 95 158 95c7 0 13 0 20 -1v-90c-12 1 -24 2 -32 2c-93 0 -148 -71 -148 -169v-235h-81zM267 -194h-288v69h288v-69z" />
    <glyph glyph-name="s" unicode="s" horiz-adv-x="437" 
d="M223 -6c-81 0 -143 28 -190 69l41 62c38 -37 81 -59 149 -59c59 0 93 29 93 66c0 43 -45 55 -116 81c-79 28 -146 60 -146 149c0 75 68 131 160 131c59 0 114 -16 168 -60l-42 -64c-42 39 -87 52 -129 52c-38 0 -75 -22 -75 -59c0 -38 39 -57 92 -76
c103 -40 171 -58 170 -153c0 -76 -58 -139 -175 -139z" />
    <glyph glyph-name="sacute" unicode="&#x15b;" horiz-adv-x="437" 
d="M169 557l118 141l91 1l-124 -142h-85zM223 -6c-81 0 -143 28 -190 69l41 62c38 -37 81 -59 149 -59c59 0 93 29 93 66c0 43 -45 55 -116 81c-79 28 -146 60 -146 149c0 75 68 131 160 131c59 0 114 -16 168 -60l-42 -64c-42 39 -87 52 -129 52c-38 0 -75 -22 -75 -59
c0 -38 39 -57 92 -76c103 -40 171 -58 170 -153c0 -76 -58 -139 -175 -139z" />
    <glyph glyph-name="scaron" unicode="&#x161;" horiz-adv-x="437" 
d="M179 555l-111 139h82l72 -88h2l72 88h83l-115 -139h-85zM223 -6c-81 0 -143 28 -190 69l41 62c38 -37 81 -59 149 -59c59 0 93 29 93 66c0 43 -45 55 -116 81c-79 28 -146 60 -146 149c0 75 68 131 160 131c59 0 114 -16 168 -60l-42 -64c-42 39 -87 52 -129 52
c-38 0 -75 -22 -75 -59c0 -38 39 -57 92 -76c103 -40 171 -58 170 -153c0 -76 -58 -139 -175 -139z" />
    <glyph glyph-name="scedilla" unicode="&#x15f;" horiz-adv-x="437" 
d="M228 286c103 -40 171 -58 170 -153c0 -76 -58 -139 -175 -139h-3l-11 -25v-2c53 -2 88 -30 88 -79c0 -42 -33 -76 -107 -76c-24 0 -41 3 -56 6v44c12 -4 27 -7 48 -7c28 0 56 11 56 37c0 22 -27 42 -83 42l1 30l15 34c-56 9 -102 33 -138 65l41 62c38 -37 81 -59 149 -59
c59 0 93 29 93 66c0 43 -45 55 -116 81c-79 28 -146 60 -146 149c0 75 68 131 160 131c59 0 114 -16 168 -60l-42 -64c-42 39 -87 52 -129 52c-38 0 -75 -22 -75 -59c0 -38 39 -57 92 -76z" />
    <glyph glyph-name="scircumflex" unicode="&#x15d;" horiz-adv-x="437" 
d="M68 556l115 140h85l111 -140h-81l-72 89h-2l-73 -89h-83zM223 -6c-81 0 -143 28 -190 69l41 62c38 -37 81 -59 149 -59c59 0 93 29 93 66c0 43 -45 55 -116 81c-79 28 -146 60 -146 149c0 75 68 131 160 131c59 0 114 -16 168 -60l-42 -64c-42 39 -87 52 -129 52
c-38 0 -75 -22 -75 -59c0 -38 39 -57 92 -76c103 -40 171 -58 170 -153c0 -76 -58 -139 -175 -139z" />
    <glyph glyph-name="scommaaccent" unicode="&#x219;" horiz-adv-x="437" 
d="M223 -6c-81 0 -143 28 -190 69l41 62c38 -37 81 -59 149 -59c59 0 93 29 93 66c0 43 -45 55 -116 81c-79 28 -146 60 -146 149c0 75 68 131 160 131c59 0 114 -16 168 -60l-42 -64c-42 39 -87 52 -129 52c-38 0 -75 -22 -75 -59c0 -38 39 -57 92 -76
c103 -40 171 -58 170 -153c0 -76 -58 -139 -175 -139zM142 -212l-20 49c46 10 59 31 59 64c0 16 -2 28 -5 45h74c3 -15 4 -31 4 -49c0 -66 -46 -103 -112 -109z" />
    <glyph glyph-name="uni1E61" unicode="&#x1e61;" horiz-adv-x="437" 
d="M224 576c-33 0 -59 26 -59 58s26 58 59 58s59 -26 59 -58s-26 -58 -59 -58zM223 -6c-81 0 -143 28 -190 69l41 62c38 -37 81 -59 149 -59c59 0 93 29 93 66c0 43 -45 55 -116 81c-79 28 -146 60 -146 149c0 75 68 131 160 131c59 0 114 -16 168 -60l-42 -64
c-42 39 -87 52 -129 52c-38 0 -75 -22 -75 -59c0 -38 39 -57 92 -76c103 -40 171 -58 170 -153c0 -76 -58 -139 -175 -139z" />
    <glyph glyph-name="uni1E63" unicode="&#x1e63;" horiz-adv-x="437" 
d="M223 -6c-81 0 -143 28 -190 69l41 62c38 -37 81 -59 149 -59c59 0 93 29 93 66c0 43 -45 55 -116 81c-79 28 -146 60 -146 149c0 75 68 131 160 131c59 0 114 -16 168 -60l-42 -64c-42 39 -87 52 -129 52c-38 0 -75 -22 -75 -59c0 -38 39 -57 92 -76
c103 -40 171 -58 170 -153c0 -76 -58 -139 -175 -139zM220 -94c33 0 59 -26 59 -58s-26 -58 -59 -58s-59 26 -59 58s26 58 59 58z" />
    <glyph glyph-name="germandbls" unicode="&#xdf;" horiz-adv-x="621" 
d="M252 -6v73h90c90 0 159 62 159 155c0 83 -63 161 -171 161h-54v70h50c116 1 132 76 132 108c0 60 -46 108 -140 108c-101 0 -161 -50 -161 -175v-494h-81v492c0 171 90 251 240 251c142 0 222 -74 222 -175c0 -43 -17 -107 -90 -139v-2c85 -34 136 -117 136 -207
c0 -138 -94 -226 -224 -226h-108z" />
    <glyph glyph-name="longs" unicode="&#x17f;" horiz-adv-x="319" 
d="M96 0v417h-59v70h59v99c0 104 50 157 137 157c49 0 86 -15 113 -32l-18 -69c-31 16 -58 26 -85 26c-40 0 -66 -26 -66 -90v-578h-81z" />
    <glyph glyph-name="t" unicode="t" horiz-adv-x="361" 
d="M213 -6c-86 0 -126 53 -126 151v272h-63v70h63v166l81 9v-175h161v-70h-161v-260c0 -59 13 -87 59 -87c29 0 59 12 83 25l21 -71c-27 -16 -60 -30 -118 -30z" />
    <glyph glyph-name="tbar" unicode="&#x167;" horiz-adv-x="361" 
d="M310 95l21 -71c-27 -16 -60 -30 -118 -30c-86 0 -126 53 -126 151v98h-53v58h53v116h-63v70h63v166l81 9v-175h161v-70h-161v-116h136v-58h-136v-86c0 -59 13 -87 59 -87c29 0 59 12 83 25z" />
    <glyph glyph-name="tcaron" unicode="&#x165;" horiz-adv-x="361" 
d="M239 588l29 184h80l-49 -184h-60zM213 -6c-86 0 -126 53 -126 151v272h-63v70h63v166l81 9v-175h161v-70h-161v-260c0 -59 13 -87 59 -87c29 0 59 12 83 25l21 -71c-27 -16 -60 -30 -118 -30z" />
    <glyph glyph-name="uni0163" unicode="&#x163;" horiz-adv-x="361" 
d="M199 -33c53 -2 88 -30 88 -79c0 -42 -33 -76 -107 -76c-24 0 -41 3 -56 6v44c12 -4 27 -7 48 -7c28 0 56 11 56 37c0 22 -27 42 -83 42l1 30l17 38c-52 17 -76 66 -76 143v272h-63v70h63v166l81 9v-175h161v-70h-161v-260c0 -59 13 -87 59 -87c29 0 59 12 83 25l21 -71
c-27 -16 -60 -30 -118 -30h-3l-11 -25v-2z" />
    <glyph glyph-name="uni021B" unicode="&#x21b;" horiz-adv-x="361" 
d="M213 -6c-86 0 -126 53 -126 151v272h-63v70h63v166l81 9v-175h161v-70h-161v-260c0 -59 13 -87 59 -87c29 0 59 12 83 25l21 -71c-27 -16 -60 -30 -118 -30zM132 -212l-20 49c46 10 59 31 59 64c0 16 -2 28 -5 45h74c3 -15 4 -31 4 -49c0 -66 -46 -103 -112 -109z" />
    <glyph glyph-name="uni1E97" unicode="&#x1e97;" horiz-adv-x="361" 
d="M77 723c-33 0 -58 26 -58 58c0 31 25 56 58 56c32 0 58 -26 58 -57s-26 -57 -58 -57zM258 723c-32 0 -58 26 -58 58c0 31 26 56 58 56s58 -26 58 -57s-26 -57 -58 -57zM213 -6c-86 0 -126 53 -126 151v272h-63v70h63v166l81 9v-175h161v-70h-161v-260
c0 -59 13 -87 59 -87c29 0 59 12 83 25l21 -71c-27 -16 -60 -30 -118 -30z" />
    <glyph glyph-name="uni1E6D" unicode="&#x1e6d;" horiz-adv-x="361" 
d="M213 -6c-86 0 -126 53 -126 151v272h-63v70h63v166l81 9v-175h161v-70h-161v-260c0 -59 13 -87 59 -87c29 0 59 12 83 25l21 -71c-27 -16 -60 -30 -118 -30zM210 -94c33 0 59 -26 59 -58s-26 -58 -59 -58s-59 26 -59 58s26 58 59 58z" />
    <glyph glyph-name="uni1E6F" unicode="&#x1e6f;" horiz-adv-x="361" 
d="M213 -6c-86 0 -126 53 -126 151v272h-63v70h63v166l81 9v-175h161v-70h-161v-260c0 -59 13 -87 59 -87c29 0 59 12 83 25l21 -71c-27 -16 -60 -30 -118 -30zM354 -194h-288v69h288v-69z" />
    <glyph glyph-name="u" unicode="u" horiz-adv-x="562" 
d="M248 -6c-112 0 -183 64 -183 203v290h81v-267c0 -110 42 -152 119 -152c78 0 145 67 145 183v236h81v-487h-81v84h-1c-37 -58 -97 -90 -161 -90z" />
    <glyph glyph-name="uacute" unicode="&#xfa;" horiz-adv-x="562" 
d="M233 557l118 141l91 1l-124 -142h-85zM248 -6c-112 0 -183 64 -183 203v290h81v-267c0 -110 42 -152 119 -152c78 0 145 67 145 183v236h81v-487h-81v84h-1c-37 -58 -97 -90 -161 -90z" />
    <glyph glyph-name="ubreve" unicode="&#x16d;" horiz-adv-x="562" 
d="M279 552c-84 0 -138 53 -144 142h65c2 -42 31 -78 79 -78c49 0 77 36 79 78h65c-6 -89 -60 -142 -144 -142zM248 -6c-112 0 -183 64 -183 203v290h81v-267c0 -110 42 -152 119 -152c78 0 145 67 145 183v236h81v-487h-81v84h-1c-37 -58 -97 -90 -161 -90z" />
    <glyph glyph-name="ucircumflex" unicode="&#xfb;" horiz-adv-x="562" 
d="M123 556l115 140h85l111 -140h-81l-72 89h-2l-73 -89h-83zM248 -6c-112 0 -183 64 -183 203v290h81v-267c0 -110 42 -152 119 -152c78 0 145 67 145 183v236h81v-487h-81v84h-1c-37 -58 -97 -90 -161 -90z" />
    <glyph glyph-name="udieresis" unicode="&#xfc;" horiz-adv-x="562" 
d="M188 577c-33 0 -58 26 -58 58c0 31 25 56 58 56c32 0 58 -26 58 -57s-26 -57 -58 -57zM369 577c-32 0 -58 26 -58 58c0 31 26 56 58 56s58 -26 58 -57s-26 -57 -58 -57zM248 -6c-112 0 -183 64 -183 203v290h81v-267c0 -110 42 -152 119 -152c78 0 145 67 145 183v236h81
v-487h-81v84h-1c-37 -58 -97 -90 -161 -90z" />
    <glyph glyph-name="uni1EE5" unicode="&#x1ee5;" horiz-adv-x="562" 
d="M248 -6c-112 0 -183 64 -183 203v290h81v-267c0 -110 42 -152 119 -152c78 0 145 67 145 183v236h81v-487h-81v84h-1c-37 -58 -97 -90 -161 -90zM283 -94c33 0 59 -26 59 -58s-26 -58 -59 -58s-59 26 -59 58s26 58 59 58z" />
    <glyph glyph-name="ugrave" unicode="&#xf9;" horiz-adv-x="562" 
d="M264 558l-121 138l92 -1l111 -137h-82zM248 -6c-112 0 -183 64 -183 203v290h81v-267c0 -110 42 -152 119 -152c78 0 145 67 145 183v236h81v-487h-81v84h-1c-37 -58 -97 -90 -161 -90z" />
    <glyph glyph-name="uni1EE7" unicode="&#x1ee7;" horiz-adv-x="562" 
d="M245 554c44 32 82 65 81 93c0 21 -16 29 -40 29c-30 0 -58 -9 -88 -33l-20 47c24 21 68 44 126 44c51 0 90 -23 90 -77c0 -49 -52 -87 -83 -103h-66zM248 -6c-112 0 -183 64 -183 203v290h81v-267c0 -110 42 -152 119 -152c78 0 145 67 145 183v236h81v-487h-81v84h-1
c-37 -58 -97 -90 -161 -90z" />
    <glyph glyph-name="uhorn" unicode="&#x1b0;" horiz-adv-x="657" 
d="M556 565h83v-73c0 -112 -52 -172 -148 -177v-315h-81v84h-1c-37 -58 -97 -90 -161 -90c-112 0 -183 64 -183 203v290h81v-267c0 -110 42 -152 119 -152c78 0 145 67 145 183v236h81v-116c56 11 65 53 65 125v69z" />
    <glyph glyph-name="uni1EE9" unicode="&#x1ee9;" horiz-adv-x="657" 
d="M442 699l-124 -142h-85l118 141zM556 565h83v-73c0 -112 -52 -172 -148 -177v-315h-81v84h-1c-37 -58 -97 -90 -161 -90c-112 0 -183 64 -183 203v290h81v-267c0 -110 42 -152 119 -152c78 0 145 67 145 183v236h81v-116c56 11 65 53 65 125v69z" />
    <glyph glyph-name="uni1EF1" unicode="&#x1ef1;" horiz-adv-x="657" 
d="M556 565h83v-73c0 -112 -52 -172 -148 -177v-315h-81v84h-1c-37 -58 -97 -90 -161 -90c-112 0 -183 64 -183 203v290h81v-267c0 -110 42 -152 119 -152c78 0 145 67 145 183v236h81v-116c56 11 65 53 65 125v69zM283 -94c33 0 59 -26 59 -58s-26 -58 -59 -58
s-59 26 -59 58s26 58 59 58z" />
    <glyph glyph-name="uni1EEB" unicode="&#x1eeb;" horiz-adv-x="657" 
d="M339 558h-82l-121 138l92 -1zM556 565h83v-73c0 -112 -52 -172 -148 -177v-315h-81v84h-1c-37 -58 -97 -90 -161 -90c-112 0 -183 64 -183 203v290h81v-267c0 -110 42 -152 119 -152c78 0 145 67 145 183v236h81v-116c56 11 65 53 65 125v69z" />
    <glyph glyph-name="uni1EED" unicode="&#x1eed;" horiz-adv-x="657" 
d="M286 676c-30 0 -58 -9 -88 -33l-20 47c24 21 68 44 126 44c51 0 90 -23 90 -77c0 -49 -52 -87 -83 -103h-66c44 32 82 65 81 93c0 21 -16 29 -40 29zM556 565h83v-73c0 -112 -52 -172 -148 -177v-315h-81v84h-1c-37 -58 -97 -90 -161 -90c-112 0 -183 64 -183 203v290h81
v-267c0 -110 42 -152 119 -152c78 0 145 67 145 183v236h81v-116c56 11 65 53 65 125v69z" />
    <glyph glyph-name="uni1EEF" unicode="&#x1eef;" horiz-adv-x="657" 
d="M211 622c-27 0 -47 -21 -60 -56l-52 23c19 60 53 98 104 98c35 0 59 -14 81 -29c21 -13 41 -29 64 -29c24 0 45 20 58 55l51 -17c-18 -67 -56 -105 -100 -105c-34 0 -63 19 -88 36c-20 13 -39 24 -58 24zM556 565h83v-73c0 -112 -52 -172 -148 -177v-315h-81v84h-1
c-37 -58 -97 -90 -161 -90c-112 0 -183 64 -183 203v290h81v-267c0 -110 42 -152 119 -152c78 0 145 67 145 183v236h81v-116c56 11 65 53 65 125v69z" />
    <glyph glyph-name="uhungarumlaut" unicode="&#x171;" horiz-adv-x="562" 
d="M155 557l118 141l85 1l-124 -142h-79zM323 557l117 141l85 1l-124 -142h-78zM248 -6c-112 0 -183 64 -183 203v290h81v-267c0 -110 42 -152 119 -152c78 0 145 67 145 183v236h81v-487h-81v84h-1c-37 -58 -97 -90 -161 -90z" />
    <glyph glyph-name="umacron" unicode="&#x16b;" horiz-adv-x="562" 
d="M135 596v69h288v-69h-288zM248 -6c-112 0 -183 64 -183 203v290h81v-267c0 -110 42 -152 119 -152c78 0 145 67 145 183v236h81v-487h-81v84h-1c-37 -58 -97 -90 -161 -90z" />
    <glyph glyph-name="uni01D4" unicode="&#x1d4;" horiz-adv-x="562" 
d="M234 555l-111 139h82l72 -88h2l72 88h83l-115 -139h-85zM248 -6c-112 0 -183 64 -183 203v290h81v-267c0 -110 42 -152 119 -152c78 0 145 67 145 183v236h81v-487h-81v84h-1c-37 -58 -97 -90 -161 -90z" />
    <glyph glyph-name="uni01D6" unicode="&#x1d6;" horiz-adv-x="562" 
d="M134 757v64h288v-64h-288zM189 579c-34 0 -59 25 -59 56c0 32 25 56 59 56c33 0 59 -24 59 -56c0 -31 -26 -56 -59 -56zM369 579c-33 0 -59 25 -59 56c0 32 26 56 59 56s59 -24 59 -56c0 -31 -26 -56 -59 -56zM248 -6c-112 0 -183 64 -183 203v290h81v-267
c0 -110 42 -152 119 -152c78 0 145 67 145 183v236h81v-487h-81v84h-1c-37 -58 -97 -90 -161 -90z" />
    <glyph glyph-name="uni01D8" unicode="&#x1d8;" horiz-adv-x="562" 
d="M242 716l118 141h91l-143 -141h-66zM189 579c-34 0 -59 25 -59 56c0 32 25 56 59 56c33 0 59 -24 59 -56c0 -31 -26 -56 -59 -56zM369 579c-33 0 -59 25 -59 56c0 32 26 56 59 56s59 -24 59 -56c0 -31 -26 -56 -59 -56zM248 -6c-112 0 -183 64 -183 203v290h81v-267
c0 -110 42 -152 119 -152c78 0 145 67 145 183v236h81v-487h-81v84h-1c-37 -58 -97 -90 -161 -90z" />
    <glyph glyph-name="uni01DA" unicode="&#x1da;" horiz-adv-x="562" 
d="M234 722l-111 139h82l72 -88h2l72 88h83l-115 -139h-85zM189 579c-34 0 -59 25 -59 56c0 32 25 56 59 56c33 0 59 -24 59 -56c0 -31 -26 -56 -59 -56zM369 579c-33 0 -59 25 -59 56c0 32 26 56 59 56s59 -24 59 -56c0 -31 -26 -56 -59 -56zM248 -6
c-112 0 -183 64 -183 203v290h81v-267c0 -110 42 -152 119 -152c78 0 145 67 145 183v236h81v-487h-81v84h-1c-37 -58 -97 -90 -161 -90z" />
    <glyph glyph-name="uni01DC" unicode="&#x1dc;" horiz-adv-x="562" 
d="M318 716h-66l-143 141h92zM189 579c-34 0 -59 25 -59 56c0 32 25 56 59 56c33 0 59 -24 59 -56c0 -31 -26 -56 -59 -56zM369 579c-33 0 -59 25 -59 56c0 32 26 56 59 56s59 -24 59 -56c0 -31 -26 -56 -59 -56zM248 -6c-112 0 -183 64 -183 203v290h81v-267
c0 -110 42 -152 119 -152c78 0 145 67 145 183v236h81v-487h-81v84h-1c-37 -58 -97 -90 -161 -90z" />
    <glyph glyph-name="uni0251" unicode="&#x251;" horiz-adv-x="604" 
d="M281 -6c-134 0 -237 98 -237 246c0 144 99 253 237 253c72 0 135 -34 170 -93l2 1v86h81v-487h-78v88h-1c-35 -58 -95 -94 -174 -94zM293 68c90 0 163 69 163 172c0 100 -67 179 -163 179c-92 0 -167 -71 -167 -179c0 -98 67 -172 167 -172z" />
    <glyph glyph-name="uni0261" unicode="&#x261;" horiz-adv-x="600" 
d="M291 -204c-73 0 -140 18 -198 53l20 72c56 -32 105 -51 175 -51c110 0 163 64 163 146v78h-2c-36 -52 -94 -85 -169 -85c-133 0 -236 96 -236 241c0 139 96 243 233 243c69 0 132 -31 171 -84h2v78h81v-451c0 -140 -70 -240 -240 -240zM290 84c98 0 163 73 163 170
c0 98 -71 164 -162 164c-99 0 -165 -71 -165 -166c0 -103 72 -168 164 -168z" />
    <glyph glyph-name="uni1E31" unicode="&#x1e31;" horiz-adv-x="517" 
d="M76 0v736h81v-515l1 -1l239 267h98l-182 -201l184 -286h-93l-147 229l-100 -108v-121h-81zM231 557l118 141l91 1l-124 -142h-85z" />
    <glyph glyph-name="uogonek" unicode="&#x173;" horiz-adv-x="562" 
d="M500 -121l6 -52c-18 -8 -41 -13 -69 -13c-61 0 -99 32 -99 84c0 35 25 77 72 107v79h-1c-37 -58 -97 -90 -161 -90c-112 0 -183 64 -183 203v290h81v-267c0 -110 42 -152 119 -152c78 0 145 67 145 183v236h81v-487h-8c-49 -16 -79 -52 -79 -85c0 -27 16 -45 49 -45
c26 0 34 3 47 9z" />
    <glyph glyph-name="uring" unicode="&#x16f;" horiz-adv-x="562" 
d="M278 545c-51 0 -95 42 -95 94c0 51 41 94 95 94s97 -41 97 -94c0 -50 -41 -94 -97 -94zM278 598c25 0 44 19 44 42s-19 42 -44 42c-23 0 -42 -19 -42 -42c0 -24 19 -42 42 -42zM248 -6c-112 0 -183 64 -183 203v290h81v-267c0 -110 42 -152 119 -152c78 0 145 67 145 183
v236h81v-487h-81v84h-1c-37 -58 -97 -90 -161 -90z" />
    <glyph glyph-name="utilde" unicode="&#x169;" horiz-adv-x="562" 
d="M357 562c-34 0 -63 19 -88 36c-20 13 -39 24 -58 24c-27 0 -47 -21 -60 -56l-52 23c19 60 53 98 104 98c35 0 59 -14 81 -29c21 -13 41 -29 64 -29c24 0 45 20 58 55l51 -17c-18 -67 -56 -105 -100 -105zM248 -6c-112 0 -183 64 -183 203v290h81v-267
c0 -110 42 -152 119 -152c78 0 145 67 145 183v236h81v-487h-81v84h-1c-37 -58 -97 -90 -161 -90z" />
    <glyph glyph-name="v" unicode="v" horiz-adv-x="520" 
d="M221 0l-198 487h88l149 -384h1l149 384h87l-198 -487h-78z" />
    <glyph glyph-name="w" unicode="w" horiz-adv-x="764" 
d="M195 0l-168 487h83l123 -366h2l112 366h70l114 -366h2l122 366h83l-168 -487h-76l-112 357h-1l-112 -357h-74z" />
    <glyph glyph-name="wacute" unicode="&#x1e83;" horiz-adv-x="764" 
d="M340 557l118 141l91 1l-124 -142h-85zM195 0l-168 487h83l123 -366h2l112 366h70l114 -366h2l122 366h83l-168 -487h-76l-112 357h-1l-112 -357h-74z" />
    <glyph glyph-name="wcircumflex" unicode="&#x175;" horiz-adv-x="764" 
d="M226 556l115 140h85l111 -140h-81l-72 89h-2l-73 -89h-83zM195 0l-168 487h83l123 -366h2l112 366h70l114 -366h2l122 366h83l-168 -487h-76l-112 357h-1l-112 -357h-74z" />
    <glyph glyph-name="wdieresis" unicode="&#x1e85;" horiz-adv-x="764" 
d="M291 577c-33 0 -58 26 -58 58c0 31 25 56 58 56c32 0 58 -26 58 -57s-26 -57 -58 -57zM472 577c-32 0 -58 26 -58 58c0 31 26 56 58 56s58 -26 58 -57s-26 -57 -58 -57zM195 0l-168 487h83l123 -366h2l112 366h70l114 -366h2l122 366h83l-168 -487h-76l-112 357h-1
l-112 -357h-74z" />
    <glyph glyph-name="wgrave" unicode="&#x1e81;" horiz-adv-x="764" 
d="M340 558l-121 138l92 -1l111 -137h-82zM195 0l-168 487h83l123 -366h2l112 366h70l114 -366h2l122 366h83l-168 -487h-76l-112 357h-1l-112 -357h-74z" />
    <glyph glyph-name="x" unicode="x" horiz-adv-x="506" 
d="M29 0l177 247l-177 240h96l126 -178h2l128 178h95l-176 -241l178 -246h-92l-132 177h-1l-133 -177h-91z" />
    <glyph glyph-name="y" unicode="y" horiz-adv-x="525" 
d="M142 -198l87 217l-207 468h88l158 -370h2l147 370h85l-276 -685h-84z" />
    <glyph glyph-name="yacute" unicode="&#xfd;" horiz-adv-x="525" 
d="M204 557l118 141l91 1l-124 -142h-85zM142 -198l87 217l-207 468h88l158 -370h2l147 370h85l-276 -685h-84z" />
    <glyph glyph-name="ycircumflex" unicode="&#x177;" horiz-adv-x="525" 
d="M108 556l115 140h85l111 -140h-81l-72 89h-2l-73 -89h-83zM142 -198l87 217l-207 468h88l158 -370h2l147 370h85l-276 -685h-84z" />
    <glyph glyph-name="ydieresis" unicode="&#xff;" horiz-adv-x="525" 
d="M173 577c-33 0 -58 26 -58 58c0 31 25 56 58 56c32 0 58 -26 58 -57s-26 -57 -58 -57zM354 577c-32 0 -58 26 -58 58c0 31 26 56 58 56s58 -26 58 -57s-26 -57 -58 -57zM142 -198l87 217l-207 468h88l158 -370h2l147 370h85l-276 -685h-84z" />
    <glyph glyph-name="uni1E8F" unicode="&#x1e8f;" horiz-adv-x="525" 
d="M264 576c-33 0 -59 26 -59 58s26 58 59 58s59 -26 59 -58s-26 -58 -59 -58zM142 -198l87 217l-207 468h88l158 -370h2l147 370h85l-276 -685h-84z" />
    <glyph glyph-name="uni1EF5" unicode="&#x1ef5;" horiz-adv-x="525" 
d="M142 -198l87 217l-207 468h88l158 -370h2l147 370h85l-276 -685h-84zM391 -94c33 0 59 -26 59 -58s-26 -58 -59 -58s-59 26 -59 58s26 58 59 58z" />
    <glyph glyph-name="ygrave" unicode="&#x1ef3;" horiz-adv-x="525" 
d="M242 558l-121 138l92 -1l111 -137h-82zM142 -198l87 217l-207 468h88l158 -370h2l147 370h85l-276 -685h-84z" />
    <glyph glyph-name="uni1EF7" unicode="&#x1ef7;" horiz-adv-x="525" 
d="M230 554c44 32 82 65 81 93c0 21 -16 29 -40 29c-30 0 -58 -9 -88 -33l-20 47c24 21 68 44 126 44c51 0 90 -23 90 -77c0 -49 -52 -87 -83 -103h-66zM142 -198l87 217l-207 468h88l158 -370h2l147 370h85l-276 -685h-84z" />
    <glyph glyph-name="uni0233" unicode="&#x233;" horiz-adv-x="525" 
d="M120 596v69h288v-69h-288zM142 -198l87 217l-207 468h88l158 -370h2l147 370h85l-276 -685h-84z" />
    <glyph glyph-name="uni1EF9" unicode="&#x1ef9;" horiz-adv-x="525" 
d="M342 562c-34 0 -63 19 -88 36c-20 13 -39 24 -58 24c-27 0 -47 -21 -60 -56l-52 23c19 60 53 98 104 98c35 0 59 -14 81 -29c21 -13 41 -29 64 -29c24 0 45 20 58 55l51 -17c-18 -67 -56 -105 -100 -105zM142 -198l87 217l-207 468h88l158 -370h2l147 370h85l-276 -685
h-84z" />
    <glyph glyph-name="z" unicode="z" horiz-adv-x="471" 
d="M36 0v59l283 355l-1 3h-267v70h379v-58l-284 -358l1 -1h283v-70h-394z" />
    <glyph glyph-name="zacute" unicode="&#x17a;" horiz-adv-x="471" 
d="M182 557l118 141l91 1l-124 -142h-85zM36 0v59l283 355l-1 3h-267v70h379v-58l-284 -358l1 -1h283v-70h-394z" />
    <glyph glyph-name="zcaron" unicode="&#x17e;" horiz-adv-x="471" 
d="M191 555l-111 139h82l72 -88h2l72 88h83l-115 -139h-85zM36 0v59l283 355l-1 3h-267v70h379v-58l-284 -358l1 -1h283v-70h-394z" />
    <glyph glyph-name="zdotaccent" unicode="&#x17c;" horiz-adv-x="471" 
d="M236 576c-33 0 -59 26 -59 58s26 58 59 58s59 -26 59 -58s-26 -58 -59 -58zM36 0v59l283 355l-1 3h-267v70h379v-58l-284 -358l1 -1h283v-70h-394z" />
    <glyph glyph-name="uni1E93" unicode="&#x1e93;" horiz-adv-x="471" 
d="M36 0v59l283 355l-1 3h-267v70h379v-58l-284 -358l1 -1h283v-70h-394zM236 -94c33 0 59 -26 59 -58s-26 -58 -59 -58s-59 26 -59 58s26 58 59 58z" />
    <glyph glyph-name="a.alt" horiz-adv-x="502" 
d="M249 493c135 0 190 -73 190 -209v-284h-76l-3 63h-1c-35 -40 -91 -69 -156 -69c-107 0 -165 65 -165 149c0 92 60 151 188 151h134c-1 88 -38 126 -118 126c-49 0 -101 -15 -139 -37l-30 66c48 25 120 44 176 44zM215 62c86 0 145 49 145 103v63h-135
c-69 0 -107 -29 -107 -83c0 -47 30 -83 97 -83z" />
    <glyph glyph-name="aacute.alt" horiz-adv-x="502" 
d="M413 696l-124 -142h-85l118 141zM249 493c135 0 190 -73 190 -209v-284h-76l-3 63h-1c-35 -40 -91 -69 -156 -69c-107 0 -165 65 -165 149c0 92 60 151 188 151h134c-1 88 -38 126 -118 126c-49 0 -101 -15 -139 -37l-30 66c48 25 120 44 176 44zM215 62
c86 0 145 49 145 103v63h-135c-69 0 -107 -29 -107 -83c0 -47 30 -83 97 -83z" />
    <glyph glyph-name="abreve.alt" horiz-adv-x="502" 
d="M260 552c-84 0 -138 53 -144 142h65c2 -42 31 -78 79 -78c49 0 77 36 79 78h65c-6 -89 -60 -142 -144 -142zM249 493c135 0 190 -73 190 -209v-284h-76l-3 63h-1c-35 -40 -91 -69 -156 -69c-107 0 -165 65 -165 149c0 92 60 151 188 151h134c-1 88 -38 126 -118 126
c-49 0 -101 -15 -139 -37l-30 66c48 25 120 44 176 44zM215 62c86 0 145 49 145 103v63h-135c-69 0 -107 -29 -107 -83c0 -47 30 -83 97 -83z" />
    <glyph glyph-name="uni1EAF.alt" horiz-adv-x="502" 
d="M409 845l-123 -142h-65l97 142h91zM260 552c-84 0 -138 53 -144 142h65c2 -42 31 -78 79 -78c49 0 77 36 79 78h65c-6 -89 -60 -142 -144 -142zM249 493c135 0 190 -73 190 -209v-284h-76l-3 63h-1c-35 -40 -91 -69 -156 -69c-107 0 -165 65 -165 149
c0 92 60 151 188 151h134c-1 88 -38 126 -118 126c-49 0 -101 -15 -139 -37l-30 66c48 25 120 44 176 44zM215 62c86 0 145 49 145 103v63h-135c-69 0 -107 -29 -107 -83c0 -47 30 -83 97 -83z" />
    <glyph glyph-name="uni1EB7.alt" horiz-adv-x="502" 
d="M260 552c-84 0 -138 53 -144 142h65c2 -42 31 -78 79 -78c49 0 77 36 79 78h65c-6 -89 -60 -142 -144 -142zM249 493c135 0 190 -73 190 -209v-284h-76l-3 63h-1c-35 -40 -91 -69 -156 -69c-107 0 -165 65 -165 149c0 92 60 151 188 151h134c-1 88 -38 126 -118 126
c-49 0 -101 -15 -139 -37l-30 66c48 25 120 44 176 44zM215 62c86 0 145 49 145 103v63h-135c-69 0 -107 -29 -107 -83c0 -47 30 -83 97 -83zM259 -94c33 0 59 -26 59 -58s-26 -58 -59 -58s-59 26 -59 58s26 58 59 58z" />
    <glyph glyph-name="uni1EB1.alt" horiz-adv-x="502" 
d="M303 703h-65l-124 142h92zM181 694c2 -42 31 -78 79 -78c49 0 77 36 79 78h65c-6 -89 -60 -142 -144 -142s-138 53 -144 142h65zM249 493c135 0 190 -73 190 -209v-284h-76l-3 63h-1c-35 -40 -91 -69 -156 -69c-107 0 -165 65 -165 149c0 92 60 151 188 151h134
c-1 88 -38 126 -118 126c-49 0 -101 -15 -139 -37l-30 66c48 25 120 44 176 44zM215 62c86 0 145 49 145 103v63h-135c-69 0 -107 -29 -107 -83c0 -47 30 -83 97 -83z" />
    <glyph glyph-name="uni1EB3.alt" horiz-adv-x="502" 
d="M261 805c-29 0 -56 -8 -84 -31l-19 45c23 20 65 42 120 42c48 0 86 -22 86 -74c0 -47 -50 -83 -79 -98h-63c42 30 78 62 77 89c0 20 -15 27 -38 27zM260 553c-86 0 -142 51 -148 136h67c2 -40 32 -75 81 -75c50 0 79 35 81 75h67c-6 -85 -62 -136 -148 -136zM249 493
c135 0 190 -73 190 -209v-284h-76l-3 63h-1c-35 -40 -91 -69 -156 -69c-107 0 -165 65 -165 149c0 92 60 151 188 151h134c-1 88 -38 126 -118 126c-49 0 -101 -15 -139 -37l-30 66c48 25 120 44 176 44zM215 62c86 0 145 49 145 103v63h-135c-69 0 -107 -29 -107 -83
c0 -47 30 -83 97 -83z" />
    <glyph glyph-name="uni1EB5.alt" horiz-adv-x="502" 
d="M192 796c-20 -2 -41 -21 -54 -56l-52 23c19 57 49 94 100 94c22 0 46 -7 76 -26c32 -20 47 -29 63 -29c29 0 46 21 58 56l52 -18c-18 -62 -51 -100 -101 -100c-30 0 -58 16 -83 32c-21 14 -40 25 -59 24zM259 616c49 0 77 36 79 78h65c-6 -89 -60 -142 -144 -142
s-138 53 -144 142h65c2 -42 31 -78 79 -78zM249 493c135 0 190 -73 190 -209v-284h-76l-3 63h-1c-35 -40 -91 -69 -156 -69c-107 0 -165 65 -165 149c0 92 60 151 188 151h134c-1 88 -38 126 -118 126c-49 0 -101 -15 -139 -37l-30 66c48 25 120 44 176 44zM215 62
c86 0 145 49 145 103v63h-135c-69 0 -107 -29 -107 -83c0 -47 30 -83 97 -83z" />
    <glyph glyph-name="uni01CE.alt" horiz-adv-x="502" 
d="M300 555h-85l-111 139h82l72 -88h2l72 88h83zM249 493c135 0 190 -73 190 -209v-284h-76l-3 63h-1c-35 -40 -91 -69 -156 -69c-107 0 -165 65 -165 149c0 92 60 151 188 151h134c-1 88 -38 126 -118 126c-49 0 -101 -15 -139 -37l-30 66c48 25 120 44 176 44zM215 62
c86 0 145 49 145 103v63h-135c-69 0 -107 -29 -107 -83c0 -47 30 -83 97 -83z" />
    <glyph glyph-name="acircumflex.alt" horiz-adv-x="502" 
d="M260 645l-73 -89h-83l115 140h85l111 -140h-81l-72 89h-2zM249 493c135 0 190 -73 190 -209v-284h-76l-3 63h-1c-35 -40 -91 -69 -156 -69c-107 0 -165 65 -165 149c0 92 60 151 188 151h134c-1 88 -38 126 -118 126c-49 0 -101 -15 -139 -37l-30 66c48 25 120 44 176 44
zM215 62c86 0 145 49 145 103v63h-135c-69 0 -107 -29 -107 -83c0 -47 30 -83 97 -83z" />
    <glyph glyph-name="uni1EA5.alt" horiz-adv-x="502" 
d="M479 785h92l-124 -142h-64zM261 645l-73 -89h-83l115 140h85l111 -140h-81l-72 89h-2zM249 493c135 0 190 -73 190 -209v-284h-76l-3 63h-1c-35 -40 -91 -69 -156 -69c-107 0 -165 65 -165 149c0 92 60 151 188 151h134c-1 88 -38 126 -118 126c-49 0 -101 -15 -139 -37
l-30 66c48 25 120 44 176 44zM215 62c86 0 145 49 145 103v63h-135c-69 0 -107 -29 -107 -83c0 -47 30 -83 97 -83z" />
    <glyph glyph-name="uni1EAD.alt" horiz-adv-x="502" 
d="M260 645l-73 -89h-83l115 140h85l111 -140h-81l-72 89h-2zM249 493c135 0 190 -73 190 -209v-284h-76l-3 63h-1c-35 -40 -91 -69 -156 -69c-107 0 -165 65 -165 149c0 92 60 151 188 151h134c-1 88 -38 126 -118 126c-49 0 -101 -15 -139 -37l-30 66c48 25 120 44 176 44
zM215 62c86 0 145 49 145 103v63h-135c-69 0 -107 -29 -107 -83c0 -47 30 -83 97 -83zM259 -94c33 0 59 -26 59 -58s-26 -58 -59 -58s-59 26 -59 58s26 58 59 58z" />
    <glyph glyph-name="uni1EA7.alt" horiz-adv-x="502" 
d="M489 643h-65l-123 142h91zM260 646l-73 -89h-83l115 140h85l111 -140h-81l-72 89h-2zM249 493c135 0 190 -73 190 -209v-284h-76l-3 63h-1c-35 -40 -91 -69 -156 -69c-107 0 -165 65 -165 149c0 92 60 151 188 151h134c-1 88 -38 126 -118 126c-49 0 -101 -15 -139 -37
l-30 66c48 25 120 44 176 44zM215 62c86 0 145 49 145 103v63h-135c-69 0 -107 -29 -107 -83c0 -47 30 -83 97 -83z" />
    <glyph glyph-name="uni1EA9.alt" horiz-adv-x="502" 
d="M454 820c48 0 86 -22 86 -74c0 -47 -50 -83 -79 -98h-63c42 30 78 62 77 89c0 20 -15 27 -38 27c-29 0 -56 -8 -84 -31l-19 45c23 20 65 42 120 42zM260 645l-73 -89h-83l115 140h85l111 -140h-81l-72 89h-2zM249 493c135 0 190 -73 190 -209v-284h-76l-3 63h-1
c-35 -40 -91 -69 -156 -69c-107 0 -165 65 -165 149c0 92 60 151 188 151h134c-1 88 -38 126 -118 126c-49 0 -101 -15 -139 -37l-30 66c48 25 120 44 176 44zM215 62c86 0 145 49 145 103v63h-135c-69 0 -107 -29 -107 -83c0 -47 30 -83 97 -83z" />
    <glyph glyph-name="uni1EAB.alt" horiz-adv-x="502" 
d="M193 804c-20 -2 -41 -21 -54 -56l-52 23c19 57 49 94 100 94c22 0 46 -7 76 -26c32 -20 47 -29 63 -29c29 0 46 21 58 56l52 -18c-18 -62 -51 -100 -101 -100c-30 0 -58 16 -83 32c-21 14 -40 25 -59 24zM220 696h85l111 -140h-81l-72 89h-2l-73 -89h-83zM249 493
c135 0 190 -73 190 -209v-284h-76l-3 63h-1c-35 -40 -91 -69 -156 -69c-107 0 -165 65 -165 149c0 92 60 151 188 151h134c-1 88 -38 126 -118 126c-49 0 -101 -15 -139 -37l-30 66c48 25 120 44 176 44zM215 62c86 0 145 49 145 103v63h-135c-69 0 -107 -29 -107 -83
c0 -47 30 -83 97 -83z" />
    <glyph glyph-name="adieresis.alt" horiz-adv-x="502" 
d="M169 577c-33 0 -58 26 -58 58c0 31 25 56 58 56c32 0 58 -26 58 -57s-26 -57 -58 -57zM350 577c-32 0 -58 26 -58 58c0 31 26 56 58 56s58 -26 58 -57s-26 -57 -58 -57zM249 493c135 0 190 -73 190 -209v-284h-76l-3 63h-1c-35 -40 -91 -69 -156 -69
c-107 0 -165 65 -165 149c0 92 60 151 188 151h134c-1 88 -38 126 -118 126c-49 0 -101 -15 -139 -37l-30 66c48 25 120 44 176 44zM215 62c86 0 145 49 145 103v63h-135c-69 0 -107 -29 -107 -83c0 -47 30 -83 97 -83z" />
    <glyph glyph-name="uni1EA1.alt" horiz-adv-x="502" 
d="M249 493c135 0 190 -73 190 -209v-284h-76l-3 63h-1c-35 -40 -91 -69 -156 -69c-107 0 -165 65 -165 149c0 92 60 151 188 151h134c-1 88 -38 126 -118 126c-49 0 -101 -15 -139 -37l-30 66c48 25 120 44 176 44zM215 62c86 0 145 49 145 103v63h-135
c-69 0 -107 -29 -107 -83c0 -47 30 -83 97 -83zM259 -94c33 0 59 -26 59 -58s-26 -58 -59 -58s-59 26 -59 58s26 58 59 58z" />
    <glyph glyph-name="agrave.alt" horiz-adv-x="502" 
d="M329 558h-82l-121 138l92 -1zM249 493c135 0 190 -73 190 -209v-284h-76l-3 63h-1c-35 -40 -91 -69 -156 -69c-107 0 -165 65 -165 149c0 92 60 151 188 151h134c-1 88 -38 126 -118 126c-49 0 -101 -15 -139 -37l-30 66c48 25 120 44 176 44zM215 62
c86 0 145 49 145 103v63h-135c-69 0 -107 -29 -107 -83c0 -47 30 -83 97 -83z" />
    <glyph glyph-name="uni1EA3.alt" horiz-adv-x="502" 
d="M267 676c-30 0 -58 -9 -88 -33l-20 47c24 21 68 44 126 44c51 0 90 -23 90 -77c0 -49 -52 -87 -83 -103h-66c44 32 82 65 81 93c0 21 -16 29 -40 29zM249 493c135 0 190 -73 190 -209v-284h-76l-3 63h-1c-35 -40 -91 -69 -156 -69c-107 0 -165 65 -165 149
c0 92 60 151 188 151h134c-1 88 -38 126 -118 126c-49 0 -101 -15 -139 -37l-30 66c48 25 120 44 176 44zM215 62c86 0 145 49 145 103v63h-135c-69 0 -107 -29 -107 -83c0 -47 30 -83 97 -83z" />
    <glyph glyph-name="amacron.alt" horiz-adv-x="502" 
d="M404 665v-69h-288v69h288zM249 493c135 0 190 -73 190 -209v-284h-76l-3 63h-1c-35 -40 -91 -69 -156 -69c-107 0 -165 65 -165 149c0 92 60 151 188 151h134c-1 88 -38 126 -118 126c-49 0 -101 -15 -139 -37l-30 66c48 25 120 44 176 44zM215 62c86 0 145 49 145 103
v63h-135c-69 0 -107 -29 -107 -83c0 -47 30 -83 97 -83z" />
    <glyph glyph-name="aogonek.alt" horiz-adv-x="502" 
d="M452 -121l6 -52c-18 -8 -41 -13 -69 -13c-61 0 -99 32 -99 84c0 35 25 78 73 108l-3 57h-1c-35 -40 -91 -69 -156 -69c-107 0 -165 65 -165 149c0 92 60 151 188 151h134c-1 88 -38 126 -118 126c-49 0 -101 -15 -139 -37l-30 66c48 25 120 44 176 44
c135 0 190 -73 190 -209v-284h-4c-49 -16 -79 -52 -79 -85c0 -27 16 -45 49 -45c26 0 34 3 47 9zM215 62c86 0 145 49 145 103v63h-135c-69 0 -107 -29 -107 -83c0 -47 30 -83 97 -83z" />
    <glyph glyph-name="aring.alt" horiz-adv-x="502" 
d="M259 545c-51 0 -95 42 -95 94c0 51 41 94 95 94s97 -41 97 -94c0 -50 -41 -94 -97 -94zM259 682c-23 0 -42 -19 -42 -42c0 -24 19 -42 42 -42c25 0 44 19 44 42s-19 42 -44 42zM249 493c135 0 190 -73 190 -209v-284h-76l-3 63h-1c-35 -40 -91 -69 -156 -69
c-107 0 -165 65 -165 149c0 92 60 151 188 151h134c-1 88 -38 126 -118 126c-49 0 -101 -15 -139 -37l-30 66c48 25 120 44 176 44zM215 62c86 0 145 49 145 103v63h-135c-69 0 -107 -29 -107 -83c0 -47 30 -83 97 -83z" />
    <glyph glyph-name="aringacute.alt" horiz-adv-x="504" 
d="M259 545c-51 0 -95 42 -95 94c0 51 41 94 95 94c31 0 58 -14 76 -35l72 50h96l-147 -108v-1c0 -50 -41 -94 -97 -94zM259 682c-23 0 -42 -19 -42 -42c0 -24 19 -42 42 -42c25 0 44 19 44 42s-19 42 -44 42zM249 493c135 0 190 -73 190 -209v-284h-76l-3 63h-1
c-35 -40 -91 -69 -156 -69c-107 0 -165 65 -165 149c0 92 60 151 188 151h134c-1 88 -38 126 -118 126c-49 0 -101 -15 -139 -37l-30 66c48 25 120 44 176 44zM215 62c86 0 145 49 145 103v63h-135c-69 0 -107 -29 -107 -83c0 -47 30 -83 97 -83z" />
    <glyph glyph-name="atilde.alt" horiz-adv-x="502" 
d="M192 622c-27 0 -47 -21 -60 -56l-52 23c19 60 53 98 104 98c35 0 59 -14 81 -29c21 -13 41 -29 64 -29c24 0 45 20 58 55l51 -17c-18 -67 -56 -105 -100 -105c-34 0 -63 19 -88 36c-20 13 -39 24 -58 24zM249 493c135 0 190 -73 190 -209v-284h-76l-3 63h-1
c-35 -40 -91 -69 -156 -69c-107 0 -165 65 -165 149c0 92 60 151 188 151h134c-1 88 -38 126 -118 126c-49 0 -101 -15 -139 -37l-30 66c48 25 120 44 176 44zM215 62c86 0 145 49 145 103v63h-135c-69 0 -107 -29 -107 -83c0 -47 30 -83 97 -83z" />
    <glyph glyph-name="g.alt" horiz-adv-x="534" 
d="M264 -218c-155 0 -236 56 -236 144c0 51 31 87 62 110v3c-23 15 -36 38 -36 67c1 33 18 61 61 102c-26 29 -41 67 -41 109c0 99 77 176 192 176c43 0 80 -11 111 -31l94 92l48 -48l-93 -87c21 -28 33 -63 33 -102c0 -96 -76 -174 -193 -174c-38 0 -73 10 -103 28
c-28 -27 -41 -43 -41 -61c-1 -17 9 -40 70 -40h113c96 0 205 -21 205 -130c0 -84 -72 -158 -246 -158zM266 210c65 0 112 48 112 107c0 61 -46 108 -112 108s-113 -48 -113 -108c0 -59 47 -107 113 -107zM266 -146c94 0 162 28 162 85c0 54 -60 64 -143 64h-68
c-23 0 -56 3 -77 6c-22 -19 -39 -43 -39 -73c0 -44 39 -82 165 -82z" />
    <glyph glyph-name="gbreve.alt" horiz-adv-x="534" 
d="M266 550c-84 0 -138 53 -144 142h65c2 -42 31 -78 79 -78c49 0 77 36 79 78h65c-6 -89 -60 -142 -144 -142zM264 -218c-155 0 -236 56 -236 144c0 51 31 87 62 110v3c-23 15 -36 38 -36 67c1 33 18 61 61 102c-26 29 -41 67 -41 109c0 99 77 176 192 176
c43 0 80 -11 111 -31l94 92l48 -48l-93 -87c21 -28 33 -63 33 -102c0 -96 -76 -174 -193 -174c-38 0 -73 10 -103 28c-28 -27 -41 -43 -41 -61c-1 -17 9 -40 70 -40h113c96 0 205 -21 205 -130c0 -84 -72 -158 -246 -158zM266 210c65 0 112 48 112 107
c0 61 -46 108 -112 108s-113 -48 -113 -108c0 -59 47 -107 113 -107zM266 -146c94 0 162 28 162 85c0 54 -60 64 -143 64h-68c-23 0 -56 3 -77 6c-22 -19 -39 -43 -39 -73c0 -44 39 -82 165 -82z" />
    <glyph glyph-name="gcaron.alt" horiz-adv-x="534" 
d="M221 553l-111 139h82l72 -88h2l72 88h83l-115 -139h-85zM264 -218c-155 0 -236 56 -236 144c0 51 31 87 62 110v3c-23 15 -36 38 -36 67c1 33 18 61 61 102c-26 29 -41 67 -41 109c0 99 77 176 192 176c43 0 80 -11 111 -31l94 92l48 -48l-93 -87c21 -28 33 -63 33 -102
c0 -96 -76 -174 -193 -174c-38 0 -73 10 -103 28c-28 -27 -41 -43 -41 -61c-1 -17 9 -40 70 -40h113c96 0 205 -21 205 -130c0 -84 -72 -158 -246 -158zM266 210c65 0 112 48 112 107c0 61 -46 108 -112 108s-113 -48 -113 -108c0 -59 47 -107 113 -107zM266 -146
c94 0 162 28 162 85c0 54 -60 64 -143 64h-68c-23 0 -56 3 -77 6c-22 -19 -39 -43 -39 -73c0 -44 39 -82 165 -82z" />
    <glyph glyph-name="gcircumflex.alt" horiz-adv-x="534" 
d="M110 556l115 143h75l120 -143h-82l-74 92l-73 -92h-81zM264 -218c-155 0 -236 56 -236 144c0 51 31 87 62 110v3c-23 15 -36 38 -36 67c1 33 18 61 61 102c-26 29 -41 67 -41 109c0 99 77 176 192 176c43 0 80 -11 111 -31l94 92l48 -48l-93 -87c21 -28 33 -63 33 -102
c0 -96 -76 -174 -193 -174c-38 0 -73 10 -103 28c-28 -27 -41 -43 -41 -61c-1 -17 9 -40 70 -40h113c96 0 205 -21 205 -130c0 -84 -72 -158 -246 -158zM266 210c65 0 112 48 112 107c0 61 -46 108 -112 108s-113 -48 -113 -108c0 -59 47 -107 113 -107zM266 -146
c94 0 162 28 162 85c0 54 -60 64 -143 64h-68c-23 0 -56 3 -77 6c-22 -19 -39 -43 -39 -73c0 -44 39 -82 165 -82z" />
    <glyph glyph-name="gcommaaccent.alt" horiz-adv-x="534" 
d="M344 713l20 -49c-46 -10 -59 -31 -59 -64c0 -16 2 -28 5 -45h-74c-3 15 -4 31 -4 49c0 66 46 103 112 109zM264 -218c-155 0 -236 56 -236 144c0 51 31 87 62 110v3c-23 15 -36 38 -36 67c1 33 18 61 61 102c-26 29 -41 67 -41 109c0 99 77 176 192 176
c43 0 80 -11 111 -31l94 92l48 -48l-93 -87c21 -28 33 -63 33 -102c0 -96 -76 -174 -193 -174c-38 0 -73 10 -103 28c-28 -27 -41 -43 -41 -61c-1 -17 9 -40 70 -40h113c96 0 205 -21 205 -130c0 -84 -72 -158 -246 -158zM266 210c65 0 112 48 112 107
c0 61 -46 108 -112 108s-113 -48 -113 -108c0 -59 47 -107 113 -107zM266 -146c94 0 162 28 162 85c0 54 -60 64 -143 64h-68c-23 0 -56 3 -77 6c-22 -19 -39 -43 -39 -73c0 -44 39 -82 165 -82z" />
    <glyph glyph-name="gdotaccent.alt" horiz-adv-x="534" 
d="M266 574c-33 0 -59 26 -59 58s26 58 59 58s59 -26 59 -58s-26 -58 -59 -58zM264 -218c-155 0 -236 56 -236 144c0 51 31 87 62 110v3c-23 15 -36 38 -36 67c1 33 18 61 61 102c-26 29 -41 67 -41 109c0 99 77 176 192 176c43 0 80 -11 111 -31l94 92l48 -48l-93 -87
c21 -28 33 -63 33 -102c0 -96 -76 -174 -193 -174c-38 0 -73 10 -103 28c-28 -27 -41 -43 -41 -61c-1 -17 9 -40 70 -40h113c96 0 205 -21 205 -130c0 -84 -72 -158 -246 -158zM266 210c65 0 112 48 112 107c0 61 -46 108 -112 108s-113 -48 -113 -108
c0 -59 47 -107 113 -107zM266 -146c94 0 162 28 162 85c0 54 -60 64 -143 64h-68c-23 0 -56 3 -77 6c-22 -19 -39 -43 -39 -73c0 -44 39 -82 165 -82z" />
    <glyph glyph-name="uni1E21.alt" horiz-adv-x="534" 
d="M122 594v69h288v-69h-288zM264 -218c-155 0 -236 56 -236 144c0 51 31 87 62 110v3c-23 15 -36 38 -36 67c1 33 18 61 61 102c-26 29 -41 67 -41 109c0 99 77 176 192 176c43 0 80 -11 111 -31l94 92l48 -48l-93 -87c21 -28 33 -63 33 -102c0 -96 -76 -174 -193 -174
c-38 0 -73 10 -103 28c-28 -27 -41 -43 -41 -61c-1 -17 9 -40 70 -40h113c96 0 205 -21 205 -130c0 -84 -72 -158 -246 -158zM266 210c65 0 112 48 112 107c0 61 -46 108 -112 108s-113 -48 -113 -108c0 -59 47 -107 113 -107zM266 -146c94 0 162 28 162 85
c0 54 -60 64 -143 64h-68c-23 0 -56 3 -77 6c-22 -19 -39 -43 -39 -73c0 -44 39 -82 165 -82z" />
    <glyph glyph-name="f.calt" horiz-adv-x="332" 
d="M96 0v417h-59v70h59v102c0 104 50 154 137 154c28 0 54 -6 75 -14l-17 -70c-14 6 -29 10 -44 10c-37 0 -70 -18 -70 -91v-91h138v-70h-138v-417h-81z" />
    <glyph glyph-name="j.calt" horiz-adv-x="224" 
d="M114 576c-33 0 -59 26 -59 58s26 58 59 58s59 -26 59 -58s-26 -58 -59 -58zM40 -204c-17 0 -32 1 -47 5l9 71c5 -2 21 -3 26 -3c31 0 46 22 46 78v540h81v-540c0 -95 -41 -151 -115 -151z" />
    <glyph glyph-name="uni0237.calt" horiz-adv-x="224" 
d="M40 -204c-17 0 -32 1 -47 5l9 71c5 -2 21 -3 26 -3c31 0 46 22 46 78v540h81v-540c0 -95 -41 -151 -115 -151z" />
    <glyph glyph-name="jcircumflex.calt" horiz-adv-x="224" 
d="M-42 556l115 140h85l111 -140h-81l-72 89h-2l-73 -89h-83zM40 -204c-17 0 -32 1 -47 5l9 71c5 -2 21 -3 26 -3c31 0 46 22 46 78v540h81v-540c0 -95 -41 -151 -115 -151z" />
    <glyph glyph-name="germandbls.calt" horiz-adv-x="739" 
d="M491 406c118 -47 219 -79 219 -212c0 -130 -114 -200 -231 -200c-73 0 -155 27 -221 88l41 79c50 -58 121 -86 181 -86c80 0 139 40 139 109c0 79 -64 102 -159 136c-33 12 -68 27 -103 44l133 254l-1 3c-58 10 -118 16 -164 16c-116 0 -171 -41 -171 -150v-487h-87v492
c0 157 91 225 248 225c70 0 193 -18 297 -42l-139 -262c6 -2 12 -4 18 -7z" />
    <glyph glyph-name="uni0162" unicode="&#x162;" horiz-adv-x="573" 
d="M292 0l-14 -31v-2c53 -2 88 -30 88 -79c0 -42 -33 -76 -107 -76c-24 0 -41 3 -56 6v44c12 -4 27 -7 48 -7c28 0 56 11 56 37c0 22 -27 42 -83 42l1 30l17 38v629h-212v79h514v-79h-215v-631h-37z" />
    <glyph glyph-name="uni021A" unicode="&#x21a;" horiz-adv-x="573" 
d="M242 0v631h-212v79h514v-79h-215v-631h-87zM211 -212l-20 49c46 10 59 31 59 64c0 16 -2 28 -5 45h74c3 -15 4 -31 4 -49c0 -66 -46 -103 -112 -109z" />
    <glyph glyph-name="q.smcp.alt" horiz-adv-x="705" 
d="M657 292c0 -114 -53 -203 -136 -253l119 -95l-50 -62l-151 122c-27 -6 -56 -10 -86 -10c-181 0 -305 128 -305 298c0 167 124 295 305 295c172 0 304 -119 304 -295zM133 292c0 -123 89 -221 220 -221c124 0 218 91 218 221c0 127 -94 217 -218 217
c-131 0 -220 -97 -220 -217z" />
    <glyph glyph-name="a.smcp" horiz-adv-x="574" 
d="M17 0l229 580h81l231 -580h-86l-51 132h-268l-50 -132h-86zM180 203h214l-106 277h-2z" />
    <glyph glyph-name="aacute.smcp" horiz-adv-x="574" 
d="M249 657l118 141l91 1l-124 -142h-85zM17 0l229 580h81l231 -580h-86l-51 132h-268l-50 -132h-86zM180 203h214l-106 277h-2z" />
    <glyph glyph-name="abreve.smcp" horiz-adv-x="574" 
d="M286 652c-84 0 -138 53 -144 142h65c2 -42 31 -78 79 -78c49 0 77 36 79 78h65c-6 -89 -60 -142 -144 -142zM17 0l229 580h81l231 -580h-86l-51 132h-268l-50 -132h-86zM180 203h214l-106 277h-2z" />
    <glyph glyph-name="uni1EAF.smcp" horiz-adv-x="574" 
d="M247 803l97 142h91l-123 -142h-65zM286 652c-84 0 -138 53 -144 142h65c2 -42 31 -78 79 -78c49 0 77 36 79 78h65c-6 -89 -60 -142 -144 -142zM17 0l229 580h81l231 -580h-86l-51 132h-268l-50 -132h-86zM180 203h214l-106 277h-2z" />
    <glyph glyph-name="uni1EB7.smcp" horiz-adv-x="574" 
d="M286 652c-84 0 -138 53 -144 142h65c2 -42 31 -78 79 -78c49 0 77 36 79 78h65c-6 -89 -60 -142 -144 -142zM17 0l229 580h81l231 -580h-86l-51 132h-268l-50 -132h-86zM180 203h214l-106 277h-2zM286 -94c33 0 59 -26 59 -58s-26 -58 -59 -58s-59 26 -59 58s26 58 59 58
z" />
    <glyph glyph-name="uni1EB1.smcp" horiz-adv-x="574" 
d="M264 803l-124 142h92l97 -142h-65zM286 652c-84 0 -138 53 -144 142h65c2 -42 31 -78 79 -78c49 0 77 36 79 78h65c-6 -89 -60 -142 -144 -142zM17 0l229 580h81l231 -580h-86l-51 132h-268l-50 -132h-86zM180 203h214l-106 277h-2z" />
    <glyph glyph-name="uni1EB3.smcp" horiz-adv-x="574" 
d="M248 789c42 30 78 62 77 89c0 20 -15 27 -38 27c-29 0 -56 -8 -84 -31l-19 45c23 20 65 42 120 42c48 0 86 -22 86 -74c0 -47 -50 -83 -79 -98h-63zM286 653c-86 0 -142 51 -148 136h67c2 -40 32 -75 81 -75c50 0 79 35 81 75h67c-6 -85 -62 -136 -148 -136zM17 0
l229 580h81l231 -580h-86l-51 132h-268l-50 -132h-86zM180 203h214l-106 277h-2z" />
    <glyph glyph-name="uni1EB5.smcp" horiz-adv-x="574" 
d="M164 840l-52 23c19 57 49 94 100 94c22 0 46 -7 76 -26c32 -20 47 -29 63 -29c29 0 46 21 58 56l52 -18c-18 -62 -51 -100 -101 -100c-30 0 -58 16 -83 32c-21 14 -40 25 -59 24c-20 -2 -41 -21 -54 -56zM285 652c-84 0 -138 53 -144 142h65c2 -42 31 -78 79 -78
c49 0 77 36 79 78h65c-6 -89 -60 -142 -144 -142zM17 0l229 580h81l231 -580h-86l-51 132h-268l-50 -132h-86zM180 203h214l-106 277h-2z" />
    <glyph glyph-name="uni01CE.smcp" horiz-adv-x="574" 
d="M241 655l-111 139h82l72 -88h2l72 88h83l-115 -139h-85zM17 0l229 580h81l231 -580h-86l-51 132h-268l-50 -132h-86zM180 203h214l-106 277h-2z" />
    <glyph glyph-name="acircumflex.smcp" horiz-adv-x="574" 
d="M130 656l115 140h85l111 -140h-81l-72 89h-2l-73 -89h-83zM17 0l229 580h81l231 -580h-86l-51 132h-268l-50 -132h-86zM180 203h214l-106 277h-2z" />
    <glyph glyph-name="uni1EA5.smcp" horiz-adv-x="574" 
d="M409 743l96 142h92l-124 -142h-64zM131 656l115 140h85l111 -140h-81l-72 89h-2l-73 -89h-83zM17 0l229 580h81l231 -580h-86l-51 132h-268l-50 -132h-86zM180 203h214l-106 277h-2z" />
    <glyph glyph-name="uni1EAD.smcp" horiz-adv-x="574" 
d="M130 656l115 140h85l111 -140h-81l-72 89h-2l-73 -89h-83zM17 0l229 580h81l231 -580h-86l-51 132h-268l-50 -132h-86zM180 203h214l-106 277h-2zM286 -94c33 0 59 -26 59 -58s-26 -58 -59 -58s-59 26 -59 58s26 58 59 58z" />
    <glyph glyph-name="uni1EA7.smcp" horiz-adv-x="574" 
d="M450 743l-123 142h91l97 -142h-65zM130 657l115 140h85l111 -140h-81l-72 89h-2l-73 -89h-83zM17 0l229 580h81l231 -580h-86l-51 132h-268l-50 -132h-86zM180 203h214l-106 277h-2z" />
    <glyph glyph-name="uni1EA9.smcp" horiz-adv-x="574" 
d="M424 748c42 30 78 62 77 89c0 20 -15 27 -38 27c-29 0 -56 -8 -84 -31l-19 45c23 20 65 42 120 42c48 0 86 -22 86 -74c0 -47 -50 -83 -79 -98h-63zM130 656l115 140h85l111 -140h-81l-72 89h-2l-73 -89h-83zM17 0l229 580h81l231 -580h-86l-51 132h-268l-50 -132h-86z
M180 203h214l-106 277h-2z" />
    <glyph glyph-name="uni1EAB.smcp" horiz-adv-x="574" 
d="M165 848l-52 23c19 57 49 94 100 94c22 0 46 -7 76 -26c32 -20 47 -29 63 -29c29 0 46 21 58 56l52 -18c-18 -62 -51 -100 -101 -100c-30 0 -58 16 -83 32c-21 14 -40 25 -59 24c-20 -2 -41 -21 -54 -56zM131 656l115 140h85l111 -140h-81l-72 89h-2l-73 -89h-83zM17 0
l229 580h81l231 -580h-86l-51 132h-268l-50 -132h-86zM180 203h214l-106 277h-2z" />
    <glyph glyph-name="adieresis.smcp" horiz-adv-x="574" 
d="M195 677c-33 0 -58 26 -58 58c0 31 25 56 58 56c32 0 58 -26 58 -57s-26 -57 -58 -57zM376 677c-32 0 -58 26 -58 58c0 31 26 56 58 56s58 -26 58 -57s-26 -57 -58 -57zM17 0l229 580h81l231 -580h-86l-51 132h-268l-50 -132h-86zM180 203h214l-106 277h-2z" />
    <glyph glyph-name="uni1EA1.smcp" horiz-adv-x="574" 
d="M17 0l229 580h81l231 -580h-86l-51 132h-268l-50 -132h-86zM180 203h214l-106 277h-2zM286 -94c33 0 59 -26 59 -58s-26 -58 -59 -58s-59 26 -59 58s26 58 59 58z" />
    <glyph glyph-name="agrave.smcp" horiz-adv-x="574" 
d="M245 658l-121 138l92 -1l111 -137h-82zM17 0l229 580h81l231 -580h-86l-51 132h-268l-50 -132h-86zM180 203h214l-106 277h-2z" />
    <glyph glyph-name="uni1EA3.smcp" horiz-adv-x="574" 
d="M252 654c44 32 82 65 81 93c0 21 -16 29 -40 29c-30 0 -58 -9 -88 -33l-20 47c24 21 68 44 126 44c51 0 90 -23 90 -77c0 -49 -52 -87 -83 -103h-66zM17 0l229 580h81l231 -580h-86l-51 132h-268l-50 -132h-86zM180 203h214l-106 277h-2z" />
    <glyph glyph-name="uni0251.smcp" horiz-adv-x="697" 
d="M323 -6c-168 0 -275 128 -275 298c0 167 107 295 275 295c92 0 170 -43 214 -116h2v109h81v-580h-81v108l-2 2c-44 -74 -122 -116 -214 -116zM335 71c117 0 204 91 204 221c0 128 -87 217 -204 217c-122 0 -202 -97 -202 -217c0 -123 80 -221 202 -221z" />
    <glyph glyph-name="amacron.smcp" horiz-adv-x="574" 
d="M142 696v69h288v-69h-288zM17 0l229 580h81l231 -580h-86l-51 132h-268l-50 -132h-86zM180 203h214l-106 277h-2z" />
    <glyph glyph-name="aogonek.smcp" horiz-adv-x="574" 
d="M563 -121l6 -52c-18 -8 -41 -13 -69 -13c-61 0 -99 32 -99 84c0 34 24 76 70 106l-50 128h-268l-50 -132h-86l229 580h81l231 -580h-12c-49 -16 -79 -52 -79 -85c0 -27 16 -45 49 -45c26 0 34 3 47 9zM180 203h214l-106 277h-2z" />
    <glyph glyph-name="aring.smcp" horiz-adv-x="574" 
d="M285 645c-51 0 -95 42 -95 94c0 51 41 94 95 94s97 -41 97 -94c0 -50 -41 -94 -97 -94zM285 698c25 0 44 19 44 42s-19 42 -44 42c-23 0 -42 -19 -42 -42c0 -24 19 -42 42 -42zM17 0l229 580h81l231 -580h-86l-51 132h-268l-50 -132h-86zM180 203h214l-106 277h-2z" />
    <glyph glyph-name="aringacute.smcp" horiz-adv-x="574" 
d="M285 645c-51 0 -95 42 -95 94c0 51 41 94 95 94c32 0 61 -15 78 -38l75 52h97l-153 -112c-2 -49 -43 -90 -97 -90zM285 782c-23 0 -42 -19 -42 -42c0 -24 19 -42 42 -42c25 0 44 19 44 42s-19 42 -44 42zM327 580l231 -580h-86l-51 132h-268l-50 -132h-86l229 580h81z
M180 203h214l-106 277h-2z" />
    <glyph glyph-name="atilde.smcp" horiz-adv-x="574" 
d="M364 662c-34 0 -63 19 -88 36c-20 13 -39 24 -58 24c-27 0 -47 -21 -60 -56l-52 23c19 60 53 98 104 98c35 0 59 -14 81 -29c21 -13 41 -29 64 -29c24 0 45 20 58 55l51 -17c-18 -67 -56 -105 -100 -105zM17 0l229 580h81l231 -580h-86l-51 132h-268l-50 -132h-86z
M180 203h214l-106 277h-2z" />
    <glyph glyph-name="ae.smcp" horiz-adv-x="812" 
d="M447 73h324v-73h-405v133h-203l-73 -133h-88l322 580h430v-73h-307v-185h257v-74h-257v-175zM366 204v299h-1l-163 -299h164z" />
    <glyph glyph-name="aeacute.smcp" horiz-adv-x="812" 
d="M550 799l-124 -142h-85l118 141zM447 73h324v-73h-405v133h-203l-73 -133h-88l322 580h430v-73h-307v-185h257v-74h-257v-175zM366 204v299h-1l-163 -299h164z" />
    <glyph glyph-name="b.smcp" horiz-adv-x="548" 
d="M77 0v580h208c121 0 193 -45 193 -141c0 -53 -24 -107 -89 -131v-1c71 -18 120 -69 120 -149c0 -97 -62 -158 -216 -158h-216zM158 335h126c64 0 112 25 112 88c0 55 -33 84 -116 84h-122v-172zM158 73h136c86 0 130 31 130 93c0 63 -44 96 -126 96h-140v-189z" />
    <glyph glyph-name="c.smcp" horiz-adv-x="618" 
d="M351 -6c-164 0 -303 103 -303 294c0 165 108 298 303 298c82 0 170 -33 236 -111l-60 -51c-45 53 -109 84 -176 84c-133 0 -218 -91 -218 -220c0 -132 94 -216 218 -216c75 0 135 34 176 84l60 -52c-53 -63 -130 -110 -236 -110z" />
    <glyph glyph-name="cacute.smcp" horiz-adv-x="618" 
d="M292 657l118 141l91 1l-124 -142h-85zM351 -6c-164 0 -303 103 -303 294c0 165 108 298 303 298c82 0 170 -33 236 -111l-60 -51c-45 53 -109 84 -176 84c-133 0 -218 -91 -218 -220c0 -132 94 -216 218 -216c75 0 135 34 176 84l60 -52c-53 -63 -130 -110 -236 -110z
" />
    <glyph glyph-name="ccaron.smcp" horiz-adv-x="618" 
d="M307 655l-111 139h82l72 -88h2l72 88h83l-115 -139h-85zM351 -6c-164 0 -303 103 -303 294c0 165 108 298 303 298c82 0 170 -33 236 -111l-60 -51c-45 53 -109 84 -176 84c-133 0 -218 -91 -218 -220c0 -132 94 -216 218 -216c75 0 135 34 176 84l60 -52
c-53 -63 -130 -110 -236 -110z" />
    <glyph glyph-name="ccedilla.smcp" horiz-adv-x="618" 
d="M351 72c75 0 135 34 176 84l60 -52c-51 -60 -124 -106 -223 -110l-12 -25v-2c53 -2 88 -30 88 -79c0 -42 -33 -76 -107 -76c-24 0 -41 3 -56 6v44c12 -4 27 -7 48 -7c28 0 56 11 56 37c0 22 -27 42 -83 42l1 30l14 32c-147 14 -265 116 -265 292c0 165 108 298 303 298
c82 0 170 -33 236 -111l-60 -51c-45 53 -109 84 -176 84c-133 0 -218 -91 -218 -220c0 -132 94 -216 218 -216z" />
    <glyph glyph-name="ccircumflex.smcp" horiz-adv-x="618" 
d="M196 656l115 140h85l111 -140h-81l-72 89h-2l-73 -89h-83zM351 -6c-164 0 -303 103 -303 294c0 165 108 298 303 298c82 0 170 -33 236 -111l-60 -51c-45 53 -109 84 -176 84c-133 0 -218 -91 -218 -220c0 -132 94 -216 218 -216c75 0 135 34 176 84l60 -52
c-53 -63 -130 -110 -236 -110z" />
    <glyph glyph-name="cdotaccent.smcp" horiz-adv-x="618" 
d="M352 676c-33 0 -59 26 -59 58s26 58 59 58s59 -26 59 -58s-26 -58 -59 -58zM351 -6c-164 0 -303 103 -303 294c0 165 108 298 303 298c82 0 170 -33 236 -111l-60 -51c-45 53 -109 84 -176 84c-133 0 -218 -91 -218 -220c0 -132 94 -216 218 -216c75 0 135 34 176 84
l60 -52c-53 -63 -130 -110 -236 -110z" />
    <glyph glyph-name="d.smcp" horiz-adv-x="626" 
d="M77 0v581h185c193 0 315 -120 315 -291s-118 -290 -313 -290h-187zM158 73h101c142 0 234 92 234 217c0 127 -93 218 -230 218h-105v-435z" />
    <glyph glyph-name="eth.smcp" horiz-adv-x="626" 
d="M262 581c193 0 315 -120 315 -291s-118 -290 -313 -290h-187v252h-55v72h55v257h185zM259 73c142 0 234 92 234 217c0 127 -93 218 -230 218h-105v-184h157v-72h-157v-179h101z" />
    <glyph glyph-name="dcaron.smcp" horiz-adv-x="626" 
d="M256 655l-111 139h82l72 -88h2l72 88h83l-115 -139h-85zM77 0v581h185c193 0 315 -120 315 -291s-118 -290 -313 -290h-187zM158 73h101c142 0 234 92 234 217c0 127 -93 218 -230 218h-105v-435z" />
    <glyph glyph-name="dcroat.smcp" horiz-adv-x="626" 
d="M262 581c193 0 315 -120 315 -291s-118 -290 -313 -290h-187v252h-55v72h55v257h185zM259 73c142 0 234 92 234 217c0 127 -93 218 -230 218h-105v-184h157v-72h-157v-179h101z" />
    <glyph glyph-name="uni1E0D.smcp" horiz-adv-x="626" 
d="M77 0v581h185c193 0 315 -120 315 -291s-118 -290 -313 -290h-187zM158 73h101c142 0 234 92 234 217c0 127 -93 218 -230 218h-105v-435zM294 -94c33 0 59 -26 59 -58s-26 -58 -59 -58s-59 26 -59 58s26 58 59 58z" />
    <glyph glyph-name="uni1E0F.smcp" horiz-adv-x="626" 
d="M77 0v581h185c193 0 315 -120 315 -291s-118 -290 -313 -290h-187zM158 73h101c142 0 234 92 234 217c0 127 -93 218 -230 218h-105v-435zM438 -194h-288v69h288v-69z" />
    <glyph glyph-name="e.smcp" horiz-adv-x="513" 
d="M76 0v580h378v-73h-297v-185h243v-73h-243v-176h315v-73h-396z" />
    <glyph glyph-name="eacute.smcp" horiz-adv-x="513" 
d="M178 657l118 141l91 1l-124 -142h-85zM76 0v580h378v-73h-297v-185h243v-73h-243v-176h315v-73h-396z" />
    <glyph glyph-name="ebreve.smcp" horiz-adv-x="513" 
d="M267 652c-84 0 -138 53 -144 142h65c2 -42 31 -78 79 -78c49 0 77 36 79 78h65c-6 -89 -60 -142 -144 -142zM76 0v580h378v-73h-297v-185h243v-73h-243v-176h315v-73h-396z" />
    <glyph glyph-name="ecaron.smcp" horiz-adv-x="513" 
d="M222 655l-111 139h82l72 -88h2l72 88h83l-115 -139h-85zM76 0v580h378v-73h-297v-185h243v-73h-243v-176h315v-73h-396z" />
    <glyph glyph-name="ecircumflex.smcp" horiz-adv-x="513" 
d="M111 656l115 140h85l111 -140h-81l-72 89h-2l-73 -89h-83zM76 0v580h378v-73h-297v-185h243v-73h-243v-176h315v-73h-396z" />
    <glyph glyph-name="uni1EBF.smcp" horiz-adv-x="513" 
d="M390 743l96 142h92l-124 -142h-64zM112 656l115 140h85l111 -140h-81l-72 89h-2l-73 -89h-83zM76 0v580h378v-73h-297v-185h243v-73h-243v-176h315v-73h-396z" />
    <glyph glyph-name="uni1EC7.smcp" horiz-adv-x="513" 
d="M111 656l115 140h85l111 -140h-81l-72 89h-2l-73 -89h-83zM76 0v580h378v-73h-297v-185h243v-73h-243v-176h315v-73h-396zM283 -94c33 0 59 -26 59 -58s-26 -58 -59 -58s-59 26 -59 58s26 58 59 58z" />
    <glyph glyph-name="uni1EC1.smcp" horiz-adv-x="513" 
d="M431 743l-123 142h91l97 -142h-65zM111 657l115 140h85l111 -140h-81l-72 89h-2l-73 -89h-83zM76 0v580h378v-73h-297v-185h243v-73h-243v-176h315v-73h-396z" />
    <glyph glyph-name="uni1EC3.smcp" horiz-adv-x="513" 
d="M405 748c42 30 78 62 77 89c0 20 -15 27 -38 27c-29 0 -56 -8 -84 -31l-19 45c23 20 65 42 120 42c48 0 86 -22 86 -74c0 -47 -50 -83 -79 -98h-63zM111 656l115 140h85l111 -140h-81l-72 89h-2l-73 -89h-83zM76 0v580h378v-73h-297v-185h243v-73h-243v-176h315v-73h-396
z" />
    <glyph glyph-name="uni1EC5.smcp" horiz-adv-x="513" 
d="M146 848l-52 23c19 57 49 94 100 94c22 0 46 -7 76 -26c32 -20 47 -29 63 -29c29 0 46 21 58 56l52 -18c-18 -62 -51 -100 -101 -100c-30 0 -58 16 -83 32c-21 14 -40 25 -59 24c-20 -2 -41 -21 -54 -56zM112 656l115 140h85l111 -140h-81l-72 89h-2l-73 -89h-83zM76 0
v580h378v-73h-297v-185h243v-73h-243v-176h315v-73h-396z" />
    <glyph glyph-name="edieresis.smcp" horiz-adv-x="513" 
d="M176 677c-33 0 -58 26 -58 58c0 31 25 56 58 56c32 0 58 -26 58 -57s-26 -57 -58 -57zM357 677c-32 0 -58 26 -58 58c0 31 26 56 58 56s58 -26 58 -57s-26 -57 -58 -57zM76 0v580h378v-73h-297v-185h243v-73h-243v-176h315v-73h-396z" />
    <glyph glyph-name="edotaccent.smcp" horiz-adv-x="513" 
d="M267 676c-33 0 -59 26 -59 58s26 58 59 58s59 -26 59 -58s-26 -58 -59 -58zM76 0v580h378v-73h-297v-185h243v-73h-243v-176h315v-73h-396z" />
    <glyph glyph-name="uni1EB9.smcp" horiz-adv-x="513" 
d="M76 0v580h378v-73h-297v-185h243v-73h-243v-176h315v-73h-396zM283 -94c33 0 59 -26 59 -58s-26 -58 -59 -58s-59 26 -59 58s26 58 59 58z" />
    <glyph glyph-name="egrave.smcp" horiz-adv-x="513" 
d="M280 658l-121 138l92 -1l111 -137h-82zM76 0v580h378v-73h-297v-185h243v-73h-243v-176h315v-73h-396z" />
    <glyph glyph-name="uni1EBB.smcp" horiz-adv-x="513" 
d="M233 654c44 32 82 65 81 93c0 21 -16 29 -40 29c-30 0 -58 -9 -88 -33l-20 47c24 21 68 44 126 44c51 0 90 -23 90 -77c0 -49 -52 -87 -83 -103h-66zM76 0v580h378v-73h-297v-185h243v-73h-243v-176h315v-73h-396z" />
    <glyph glyph-name="emacron.smcp" horiz-adv-x="513" 
d="M123 696v69h288v-69h-288zM76 0v580h378v-73h-297v-185h243v-73h-243v-176h315v-73h-396z" />
    <glyph glyph-name="eogonek.smcp" horiz-adv-x="513" 
d="M478 -121l6 -52c-18 -8 -41 -13 -69 -13c-61 0 -99 32 -99 84c0 33 22 72 64 102h-304v580h378v-73h-297v-185h243v-73h-243v-176h315v-73h-11c-49 -16 -79 -52 -79 -85c0 -27 16 -45 49 -45c26 0 34 3 47 9z" />
    <glyph glyph-name="uni1EBD.smcp" horiz-adv-x="513" 
d="M345 662c-34 0 -63 19 -88 36c-20 13 -39 24 -58 24c-27 0 -47 -21 -60 -56l-52 23c19 60 53 98 104 98c35 0 59 -14 81 -29c21 -13 41 -29 64 -29c24 0 45 20 58 55l51 -17c-18 -67 -56 -105 -100 -105zM76 0v580h378v-73h-297v-185h243v-73h-243v-176h315v-73h-396z
" />
    <glyph glyph-name="uni0259.smcp" horiz-adv-x="652" 
d="M308 587c189 0 295 -127 295 -297s-106 -296 -285 -296c-158 0 -279 100 -279 279c0 10 2 31 3 35h479c-6 115 -85 201 -218 201c-66 0 -124 -20 -174 -59l-47 64c58 46 139 73 226 73zM319 72c109 0 181 62 199 166h-395c9 -102 81 -166 196 -166z" />
    <glyph glyph-name="f.smcp" horiz-adv-x="497" 
d="M77 0v580h391v-73h-310v-192h263v-74h-263v-241h-81z" />
    <glyph glyph-name="g.smcp" horiz-adv-x="646" 
d="M351 -6c-174 0 -303 113 -303 296c0 169 117 296 300 296c83 0 167 -29 231 -94l-57 -50c-47 43 -105 67 -174 67c-122 0 -215 -86 -215 -219c0 -126 86 -219 218 -219c58 0 110 14 155 45v115h-170v73h250v-237c-56 -45 -143 -73 -235 -73z" />
    <glyph glyph-name="gbreve.smcp" horiz-adv-x="646" 
d="M348 652c-84 0 -138 53 -144 142h65c2 -42 31 -78 79 -78c49 0 77 36 79 78h65c-6 -89 -60 -142 -144 -142zM351 -6c-174 0 -303 113 -303 296c0 169 117 296 300 296c83 0 167 -29 231 -94l-57 -50c-47 43 -105 67 -174 67c-122 0 -215 -86 -215 -219
c0 -126 86 -219 218 -219c58 0 110 14 155 45v115h-170v73h250v-237c-56 -45 -143 -73 -235 -73z" />
    <glyph glyph-name="gcaron.smcp" horiz-adv-x="646" 
d="M303 655l-111 139h82l72 -88h2l72 88h83l-115 -139h-85zM351 -6c-174 0 -303 113 -303 296c0 169 117 296 300 296c83 0 167 -29 231 -94l-57 -50c-47 43 -105 67 -174 67c-122 0 -215 -86 -215 -219c0 -126 86 -219 218 -219c58 0 110 14 155 45v115h-170v73h250v-237
c-56 -45 -143 -73 -235 -73z" />
    <glyph glyph-name="gcircumflex.smcp" horiz-adv-x="646" 
d="M192 656l115 140h85l111 -140h-81l-72 89h-2l-73 -89h-83zM351 -6c-174 0 -303 113 -303 296c0 169 117 296 300 296c83 0 167 -29 231 -94l-57 -50c-47 43 -105 67 -174 67c-122 0 -215 -86 -215 -219c0 -126 86 -219 218 -219c58 0 110 14 155 45v115h-170v73h250v-237
c-56 -45 -143 -73 -235 -73z" />
    <glyph glyph-name="gcommaaccent.smcp" horiz-adv-x="646" 
d="M351 -6c-174 0 -303 113 -303 296c0 169 117 296 300 296c83 0 167 -29 231 -94l-57 -50c-47 43 -105 67 -174 67c-122 0 -215 -86 -215 -219c0 -126 86 -219 218 -219c58 0 110 14 155 45v115h-170v73h250v-237c-56 -45 -143 -73 -235 -73zM279 -212l-20 49
c46 10 59 31 59 64c0 16 -2 28 -5 45h74c3 -15 4 -31 4 -49c0 -66 -46 -103 -112 -109z" />
    <glyph glyph-name="gdotaccent.smcp" horiz-adv-x="646" 
d="M348 676c-33 0 -59 26 -59 58s26 58 59 58s59 -26 59 -58s-26 -58 -59 -58zM351 -6c-174 0 -303 113 -303 296c0 169 117 296 300 296c83 0 167 -29 231 -94l-57 -50c-47 43 -105 67 -174 67c-122 0 -215 -86 -215 -219c0 -126 86 -219 218 -219c58 0 110 14 155 45v115
h-170v73h250v-237c-56 -45 -143 -73 -235 -73z" />
    <glyph glyph-name="uni1E21.smcp" horiz-adv-x="646" 
d="M204 696v69h288v-69h-288zM351 -6c-174 0 -303 113 -303 296c0 169 117 296 300 296c83 0 167 -29 231 -94l-57 -50c-47 43 -105 67 -174 67c-122 0 -215 -86 -215 -219c0 -126 86 -219 218 -219c58 0 110 14 155 45v115h-170v73h250v-237c-56 -45 -143 -73 -235 -73z
" />
    <glyph glyph-name="uni0261.smcp" horiz-adv-x="686" 
d="M336 -168c-92 0 -170 19 -228 55l20 73c56 -32 115 -53 204 -53c143 0 196 70 196 198v40l-3 1c-43 -75 -123 -116 -213 -116c-157 0 -265 111 -265 271c0 162 108 286 269 286c88 0 166 -43 209 -116h3v109h81v-482c0 -160 -70 -266 -273 -266zM329 107
c119 0 198 90 198 198c0 115 -79 205 -195 205c-122 0 -200 -94 -200 -209c0 -113 78 -194 197 -194z" />
    <glyph glyph-name="h.smcp" horiz-adv-x="625" 
d="M77 0v580h81v-266h309v266h81v-580h-81v241h-309v-241h-81z" />
    <glyph glyph-name="hbar.smcp" horiz-adv-x="625" 
d="M580 479v-61h-32v-418h-81v241h-309v-241h-81v418h-33v61h33v101h81v-101h309v101h81v-101h32zM467 314v104h-309v-104h309z" />
    <glyph glyph-name="uni1E2B.smcp" horiz-adv-x="625" 
d="M77 0v580h81v-266h309v266h81v-580h-81v241h-309v-241h-81zM315 -220c-84 0 -138 53 -144 142h65c2 -42 30 -78 79 -78c48 0 77 36 79 78h65c-6 -89 -60 -142 -144 -142z" />
    <glyph glyph-name="hcircumflex.smcp" horiz-adv-x="625" 
d="M159 656l115 140h85l111 -140h-81l-72 89h-2l-73 -89h-83zM77 0v580h81v-266h309v266h81v-580h-81v241h-309v-241h-81z" />
    <glyph glyph-name="uni1E25.smcp" horiz-adv-x="625" 
d="M77 0v580h81v-266h309v266h81v-580h-81v241h-309v-241h-81zM315 -94c33 0 59 -26 59 -58s-26 -58 -59 -58s-59 26 -59 58s26 58 59 58z" />
    <glyph glyph-name="i.smcp" horiz-adv-x="236" 
d="M77 0v580h81v-580h-81z" />
    <glyph glyph-name="dotlessi.smcp" horiz-adv-x="236" 
d="M77 0v580h81v-580h-81z" />
    <glyph glyph-name="iacute.smcp" horiz-adv-x="236" 
d="M82 657l118 141l91 1l-124 -142h-85zM77 0v580h81v-580h-81z" />
    <glyph glyph-name="ibreve.smcp" horiz-adv-x="236" 
d="M118 652c-84 0 -138 53 -144 142h65c2 -42 31 -78 79 -78c49 0 77 36 79 78h65c-6 -89 -60 -142 -144 -142zM77 0v580h81v-580h-81z" />
    <glyph glyph-name="uni01D0.smcp" horiz-adv-x="236" 
d="M73 655l-111 139h82l72 -88h2l72 88h83l-115 -139h-85zM77 0v580h81v-580h-81z" />
    <glyph glyph-name="icircumflex.smcp" horiz-adv-x="236" 
d="M-38 656l115 140h85l111 -140h-81l-72 89h-2l-73 -89h-83zM77 0v580h81v-580h-81z" />
    <glyph glyph-name="idieresis.smcp" horiz-adv-x="236" 
d="M27 677c-33 0 -58 26 -58 58c0 31 25 56 58 56c32 0 58 -26 58 -57s-26 -57 -58 -57zM208 677c-32 0 -58 26 -58 58c0 31 26 56 58 56s58 -26 58 -57s-26 -57 -58 -57zM77 0v580h81v-580h-81z" />
    <glyph glyph-name="i.loclTRK.smcp" horiz-adv-x="236" 
d="M118 676c-33 0 -59 26 -59 58s26 58 59 58s59 -26 59 -58s-26 -58 -59 -58zM77 0v580h81v-580h-81z" />
    <glyph glyph-name="uni1ECB.smcp" horiz-adv-x="236" 
d="M77 0v580h81v-580h-81zM120 -94c33 0 59 -26 59 -58s-26 -58 -59 -58s-59 26 -59 58s26 58 59 58z" />
    <glyph glyph-name="igrave.smcp" horiz-adv-x="236" 
d="M74 658l-121 138l92 -1l111 -137h-82zM77 0v580h81v-580h-81z" />
    <glyph glyph-name="uni1EC9.smcp" horiz-adv-x="236" 
d="M84 654c44 32 82 65 81 93c0 21 -16 29 -40 29c-30 0 -58 -9 -88 -33l-20 47c24 21 68 44 126 44c51 0 90 -23 90 -77c0 -49 -52 -87 -83 -103h-66zM77 0v580h81v-580h-81z" />
    <glyph glyph-name="ij.smcp" horiz-adv-x="653" 
d="M77 0v580h81v-580h-81zM419 -5c-57 0 -120 20 -166 77l48 61c27 -31 67 -60 115 -60c50 0 92 28 92 119v388h81v-387c0 -125 -51 -198 -170 -198z" />
    <glyph glyph-name="imacron.smcp" horiz-adv-x="236" 
d="M-26 696v69h288v-69h-288zM77 0v580h81v-580h-81z" />
    <glyph glyph-name="iogonek.smcp" horiz-adv-x="236" 
d="M168 -121l6 -52c-18 -8 -41 -13 -69 -13c-61 0 -99 32 -99 84c0 34 24 77 71 107v575h81v-580h-7c-49 -16 -79 -52 -79 -85c0 -27 16 -45 49 -45c26 0 34 3 47 9z" />
    <glyph glyph-name="itilde.smcp" horiz-adv-x="236" 
d="M196 662c-34 0 -63 19 -88 36c-20 13 -39 24 -58 24c-27 0 -47 -21 -60 -56l-52 23c19 60 53 98 104 98c35 0 59 -14 81 -29c21 -13 41 -29 64 -29c24 0 45 20 58 55l51 -17c-18 -67 -56 -105 -100 -105zM77 0v580h81v-580h-81z" />
    <glyph glyph-name="j.smcp" horiz-adv-x="417" 
d="M183 -5c-57 0 -120 20 -166 77l48 61c27 -31 67 -60 115 -60c50 0 92 28 92 119v388h81v-387c0 -125 -51 -198 -170 -198z" />
    <glyph glyph-name="uni0237.smcp" horiz-adv-x="417" 
d="M183 -5c-57 0 -120 20 -166 77l48 61c27 -31 67 -60 115 -60c50 0 92 28 92 119v388h81v-387c0 -125 -51 -198 -170 -198z" />
    <glyph glyph-name="uni006A0301.smcp" horiz-adv-x="417" 
d="M272 658l118 141l91 1l-124 -142h-85zM183 -5c-57 0 -120 20 -166 77l48 61c27 -31 67 -60 115 -60c50 0 92 28 92 119v388h81v-387c0 -125 -51 -198 -170 -198z" />
    <glyph glyph-name="jcircumflex.smcp" horiz-adv-x="417" 
d="M157 656l115 140h85l111 -140h-81l-72 89h-2l-73 -89h-83zM183 -5c-57 0 -120 20 -166 77l48 61c27 -31 67 -60 115 -60c50 0 92 28 92 119v388h81v-387c0 -125 -51 -198 -170 -198z" />
    <glyph glyph-name="k.smcp" horiz-adv-x="562" 
d="M77 0v580h81v-306h1l267 306h104l-234 -262l241 -318h-102l-196 255l-81 -91v-164h-81z" />
    <glyph glyph-name="uni1E31.smcp" horiz-adv-x="562" 
d="M206 657l118 141l91 1l-124 -142h-85zM77 0v580h81v-306h1l267 306h104l-234 -262l241 -318h-102l-196 255l-81 -91v-164h-81z" />
    <glyph glyph-name="kcommaaccent.smcp" horiz-adv-x="562" 
d="M77 0v580h81v-306h1l267 306h104l-234 -262l241 -318h-102l-196 255l-81 -91v-164h-81zM216 -212l-20 49c46 10 59 31 59 64c0 16 -2 28 -5 45h74c3 -15 4 -31 4 -49c0 -66 -46 -103 -112 -109z" />
    <glyph glyph-name="kgreenlandic.smcp" horiz-adv-x="679" 
d="M77 0v580h81v-306h1l267 306h104l-234 -262l241 -318h-102l-196 255l-81 -91v-164h-81zM541 386l54 194h59l-34 -194h-79z" />
    <glyph glyph-name="l.smcp" horiz-adv-x="479" 
d="M77 0v580h81v-507h296v-73h-377z" />
    <glyph glyph-name="lacute.smcp" horiz-adv-x="479" 
d="M131 657l118 141l91 1l-124 -142h-85zM77 0v580h81v-507h296v-73h-377z" />
    <glyph glyph-name="lcaron.smcp" horiz-adv-x="479" 
d="M243 473l28 184h81l-50 -184h-59zM77 0v580h81v-507h296v-73h-377z" />
    <glyph glyph-name="lcommaaccent.smcp" horiz-adv-x="479" 
d="M77 0v580h81v-507h296v-73h-377zM180 -212l-20 49c46 10 59 31 59 64c0 16 -2 28 -5 45h74c3 -15 4 -31 4 -49c0 -66 -46 -103 -112 -109z" />
    <glyph glyph-name="ldot.smcp" horiz-adv-x="479" 
d="M77 0v580h81v-507h296v-73h-377zM355 230c-33 0 -60 26 -60 59s27 59 60 59s59 -26 59 -59s-26 -59 -59 -59z" />
    <glyph glyph-name="uni1E37.smcp" horiz-adv-x="479" 
d="M77 0v580h81v-507h296v-73h-377zM258 -94c33 0 59 -26 59 -58s-26 -58 -59 -58s-59 26 -59 58s26 58 59 58z" />
    <glyph glyph-name="uni1E39.smcp" horiz-adv-x="479" 
d="M76 696v69h288v-69h-288zM77 0v580h81v-507h296v-73h-377zM258 -94c33 0 59 -26 59 -58s-26 -58 -59 -58s-59 26 -59 58s26 58 59 58z" />
    <glyph glyph-name="uni1E3B.smcp" horiz-adv-x="479" 
d="M77 0v580h81v-507h296v-73h-377zM402 -194h-288v69h288v-69z" />
    <glyph glyph-name="lslash.smcp" horiz-adv-x="479" 
d="M158 73h296v-73h-377v222l-67 -28v67l67 28v291h81v-257l101 43v-67l-101 -43v-183z" />
    <glyph glyph-name="m.smcp" horiz-adv-x="760" 
d="M78 0v580h83l218 -364h2l218 364h84v-580h-81v430l-1 1l-194 -314h-54l-193 313h-1v-430h-81z" />
    <glyph glyph-name="uni1E43.smcp" horiz-adv-x="760" 
d="M78 0v580h83l218 -364h2l218 364h84v-580h-81v430l-1 1l-194 -314h-54l-193 313h-1v-430h-81zM376 -94c33 0 59 -26 59 -58s-26 -58 -59 -58s-59 26 -59 58s26 58 59 58z" />
    <glyph glyph-name="n.smcp" horiz-adv-x="645" 
d="M74 0v580h82l332 -447l2 1v446h81v-580h-84l-329 441l-3 -1v-440h-81z" />
    <glyph glyph-name="nacute.smcp" horiz-adv-x="645" 
d="M240 657l118 141l91 1l-124 -142h-85zM74 0v580h82l332 -447l2 1v446h81v-580h-84l-329 441l-3 -1v-440h-81z" />
    <glyph glyph-name="napostrophe.smcp" horiz-adv-x="764" 
d="M101 580l-54 -194h-59l34 194h79zM191 0v580h82l332 -447l2 1v446h81v-580h-84l-329 441l-3 -1v-440h-81z" />
    <glyph glyph-name="ncaron.smcp" horiz-adv-x="645" 
d="M284 655l-111 139h82l72 -88h2l72 88h83l-115 -139h-85zM74 0v580h82l332 -447l2 1v446h81v-580h-84l-329 441l-3 -1v-440h-81z" />
    <glyph glyph-name="ncommaaccent.smcp" horiz-adv-x="645" 
d="M74 0v580h82l332 -447l2 1v446h81v-580h-84l-329 441l-3 -1v-440h-81zM250 -212l-20 49c46 10 59 31 59 64c0 16 -2 28 -5 45h74c3 -15 4 -31 4 -49c0 -66 -46 -103 -112 -109z" />
    <glyph glyph-name="uni1E45.smcp" horiz-adv-x="645" 
d="M329 676c-33 0 -59 26 -59 58s26 58 59 58s59 -26 59 -58s-26 -58 -59 -58zM74 0v580h82l332 -447l2 1v446h81v-580h-84l-329 441l-3 -1v-440h-81z" />
    <glyph glyph-name="uni1E47.smcp" horiz-adv-x="645" 
d="M74 0v580h82l332 -447l2 1v446h81v-580h-84l-329 441l-3 -1v-440h-81zM328 -94c33 0 59 -26 59 -58s-26 -58 -59 -58s-59 26 -59 58s26 58 59 58z" />
    <glyph glyph-name="eng.smcp" horiz-adv-x="645" 
d="M490 580h81v-582c0 -108 -46 -166 -160 -166c-24 0 -48 5 -73 13l6 66c20 -7 39 -10 57 -10c57 0 89 24 89 96l-333 446l-2 -1v-442h-81v580h81l333 -445l2 1v444z" />
    <glyph glyph-name="uni0272.smcp" horiz-adv-x="645" 
d="M490 580h81v-580h-84l-329 441l-3 -1v-456c0 -93 -39 -152 -135 -152c-20 0 -44 5 -67 13l5 66c19 -8 38 -11 52 -11c42 0 64 27 64 84v596h82l332 -447l2 1v446z" />
    <glyph glyph-name="uni1E49.smcp" horiz-adv-x="645" 
d="M74 0v580h82l332 -447l2 1v446h81v-580h-84l-329 441l-3 -1v-440h-81zM472 -194h-288v69h288v-69z" />
    <glyph glyph-name="ntilde.smcp" horiz-adv-x="645" 
d="M407 662c-34 0 -63 19 -88 36c-20 13 -39 24 -58 24c-27 0 -47 -21 -60 -56l-52 23c19 60 53 98 104 98c35 0 59 -14 81 -29c21 -13 41 -29 64 -29c24 0 45 20 58 55l51 -17c-18 -67 -56 -105 -100 -105zM74 0v580h82l332 -447l2 1v446h81v-580h-84l-329 441l-3 -1v-440
h-81z" />
    <glyph glyph-name="o.smcp" horiz-adv-x="703" 
d="M352 -6c-181 0 -304 128 -304 298c0 167 123 295 304 295c171 0 302 -119 302 -295c0 -179 -131 -298 -302 -298zM352 71c123 0 217 91 217 221c0 128 -94 217 -217 217c-130 0 -219 -97 -219 -217c0 -123 89 -221 219 -221z" />
    <glyph glyph-name="oacute.smcp" horiz-adv-x="703" 
d="M308 657l118 141l91 1l-124 -142h-85zM352 -6c-181 0 -304 128 -304 298c0 167 123 295 304 295c171 0 302 -119 302 -295c0 -179 -131 -298 -302 -298zM352 71c123 0 217 91 217 221c0 128 -94 217 -217 217c-130 0 -219 -97 -219 -217c0 -123 89 -221 219 -221z" />
    <glyph glyph-name="obreve.smcp" horiz-adv-x="703" 
d="M353 652c-84 0 -138 53 -144 142h65c2 -42 31 -78 79 -78c49 0 77 36 79 78h65c-6 -89 -60 -142 -144 -142zM352 -6c-181 0 -304 128 -304 298c0 167 123 295 304 295c171 0 302 -119 302 -295c0 -179 -131 -298 -302 -298zM352 71c123 0 217 91 217 221
c0 128 -94 217 -217 217c-130 0 -219 -97 -219 -217c0 -123 89 -221 219 -221z" />
    <glyph glyph-name="uni01D2.smcp" horiz-adv-x="703" 
d="M308 655l-111 139h82l72 -88h2l72 88h83l-115 -139h-85zM352 -6c-181 0 -304 128 -304 298c0 167 123 295 304 295c171 0 302 -119 302 -295c0 -179 -131 -298 -302 -298zM352 71c123 0 217 91 217 221c0 128 -94 217 -217 217c-130 0 -219 -97 -219 -217
c0 -123 89 -221 219 -221z" />
    <glyph glyph-name="ocircumflex.smcp" horiz-adv-x="703" 
d="M197 656l115 140h85l111 -140h-81l-72 89h-2l-73 -89h-83zM352 -6c-181 0 -304 128 -304 298c0 167 123 295 304 295c171 0 302 -119 302 -295c0 -179 -131 -298 -302 -298zM352 71c123 0 217 91 217 221c0 128 -94 217 -217 217c-130 0 -219 -97 -219 -217
c0 -123 89 -221 219 -221z" />
    <glyph glyph-name="uni1ED1.smcp" horiz-adv-x="703" 
d="M476 743l96 142h92l-124 -142h-64zM198 656l115 140h85l111 -140h-81l-72 89h-2l-73 -89h-83zM352 -6c-181 0 -304 128 -304 298c0 167 123 295 304 295c171 0 302 -119 302 -295c0 -179 -131 -298 -302 -298zM352 71c123 0 217 91 217 221c0 128 -94 217 -217 217
c-130 0 -219 -97 -219 -217c0 -123 89 -221 219 -221z" />
    <glyph glyph-name="uni1ED9.smcp" horiz-adv-x="703" 
d="M197 656l115 140h85l111 -140h-81l-72 89h-2l-73 -89h-83zM352 -6c-181 0 -304 128 -304 298c0 167 123 295 304 295c171 0 302 -119 302 -295c0 -179 -131 -298 -302 -298zM352 71c123 0 217 91 217 221c0 128 -94 217 -217 217c-130 0 -219 -97 -219 -217
c0 -123 89 -221 219 -221zM352 -94c33 0 59 -26 59 -58s-26 -58 -59 -58s-59 26 -59 58s26 58 59 58z" />
    <glyph glyph-name="uni1ED3.smcp" horiz-adv-x="703" 
d="M517 743l-123 142h91l97 -142h-65zM197 657l115 140h85l111 -140h-81l-72 89h-2l-73 -89h-83zM352 -6c-181 0 -304 128 -304 298c0 167 123 295 304 295c171 0 302 -119 302 -295c0 -179 -131 -298 -302 -298zM352 71c123 0 217 91 217 221c0 128 -94 217 -217 217
c-130 0 -219 -97 -219 -217c0 -123 89 -221 219 -221z" />
    <glyph glyph-name="uni1ED5.smcp" horiz-adv-x="703" 
d="M491 748c42 30 78 62 77 89c0 20 -15 27 -38 27c-29 0 -56 -8 -84 -31l-19 45c23 20 65 42 120 42c48 0 86 -22 86 -74c0 -47 -50 -83 -79 -98h-63zM197 656l115 140h85l111 -140h-81l-72 89h-2l-73 -89h-83zM352 -6c-181 0 -304 128 -304 298c0 167 123 295 304 295
c171 0 302 -119 302 -295c0 -179 -131 -298 -302 -298zM352 71c123 0 217 91 217 221c0 128 -94 217 -217 217c-130 0 -219 -97 -219 -217c0 -123 89 -221 219 -221z" />
    <glyph glyph-name="uni1ED7.smcp" horiz-adv-x="703" 
d="M232 848l-52 23c19 57 49 94 100 94c22 0 46 -7 76 -26c32 -20 47 -29 63 -29c29 0 46 21 58 56l52 -18c-18 -62 -51 -100 -101 -100c-30 0 -58 16 -83 32c-21 14 -40 25 -59 24c-20 -2 -41 -21 -54 -56zM198 656l115 140h85l111 -140h-81l-72 89h-2l-73 -89h-83zM352 -6
c-181 0 -304 128 -304 298c0 167 123 295 304 295c171 0 302 -119 302 -295c0 -179 -131 -298 -302 -298zM352 71c123 0 217 91 217 221c0 128 -94 217 -217 217c-130 0 -219 -97 -219 -217c0 -123 89 -221 219 -221z" />
    <glyph glyph-name="odieresis.smcp" horiz-adv-x="703" 
d="M262 677c-33 0 -58 26 -58 58c0 31 25 56 58 56c32 0 58 -26 58 -57s-26 -57 -58 -57zM443 677c-32 0 -58 26 -58 58c0 31 26 56 58 56s58 -26 58 -57s-26 -57 -58 -57zM352 -6c-181 0 -304 128 -304 298c0 167 123 295 304 295c171 0 302 -119 302 -295
c0 -179 -131 -298 -302 -298zM352 71c123 0 217 91 217 221c0 128 -94 217 -217 217c-130 0 -219 -97 -219 -217c0 -123 89 -221 219 -221z" />
    <glyph glyph-name="uni1ECD.smcp" horiz-adv-x="703" 
d="M352 -6c-181 0 -304 128 -304 298c0 167 123 295 304 295c171 0 302 -119 302 -295c0 -179 -131 -298 -302 -298zM352 71c123 0 217 91 217 221c0 128 -94 217 -217 217c-130 0 -219 -97 -219 -217c0 -123 89 -221 219 -221zM352 -94c33 0 59 -26 59 -58s-26 -58 -59 -58
s-59 26 -59 58s26 58 59 58z" />
    <glyph glyph-name="ograve.smcp" horiz-adv-x="703" 
d="M329 658l-121 138l92 -1l111 -137h-82zM352 -6c-181 0 -304 128 -304 298c0 167 123 295 304 295c171 0 302 -119 302 -295c0 -179 -131 -298 -302 -298zM352 71c123 0 217 91 217 221c0 128 -94 217 -217 217c-130 0 -219 -97 -219 -217c0 -123 89 -221 219 -221z" />
    <glyph glyph-name="uni1ECF.smcp" horiz-adv-x="703" 
d="M319 654c44 32 82 65 81 93c0 21 -16 29 -40 29c-30 0 -58 -9 -88 -33l-20 47c24 21 68 44 126 44c51 0 90 -23 90 -77c0 -49 -52 -87 -83 -103h-66zM352 -6c-181 0 -304 128 -304 298c0 167 123 295 304 295c171 0 302 -119 302 -295c0 -179 -131 -298 -302 -298z
M352 71c123 0 217 91 217 221c0 128 -94 217 -217 217c-130 0 -219 -97 -219 -217c0 -123 89 -221 219 -221z" />
    <glyph glyph-name="ohorn.smcp" horiz-adv-x="743" 
d="M630 675h83v-73c0 -88 -32 -144 -93 -167c22 -41 34 -89 34 -143c0 -179 -131 -298 -302 -298c-181 0 -304 128 -304 298c0 167 123 295 304 295c95 0 178 -37 233 -100c38 16 45 56 45 119v69zM352 71c123 0 217 91 217 221c0 128 -94 217 -217 217
c-130 0 -219 -97 -219 -217c0 -123 89 -221 219 -221z" />
    <glyph glyph-name="uni1EDB.smcp" horiz-adv-x="743" 
d="M517 799l-124 -142h-85l118 141zM630 675h83v-73c0 -88 -32 -144 -93 -167c22 -41 34 -89 34 -143c0 -179 -131 -298 -302 -298c-181 0 -304 128 -304 298c0 167 123 295 304 295c95 0 178 -37 233 -100c38 16 45 56 45 119v69zM352 71c123 0 217 91 217 221
c0 128 -94 217 -217 217c-130 0 -219 -97 -219 -217c0 -123 89 -221 219 -221z" />
    <glyph glyph-name="uni1EE3.smcp" horiz-adv-x="743" 
d="M630 675h83v-73c0 -88 -32 -144 -93 -167c22 -41 34 -89 34 -143c0 -179 -131 -298 -302 -298c-181 0 -304 128 -304 298c0 167 123 295 304 295c95 0 178 -37 233 -100c38 16 45 56 45 119v69zM352 71c123 0 217 91 217 221c0 128 -94 217 -217 217
c-130 0 -219 -97 -219 -217c0 -123 89 -221 219 -221zM352 -94c33 0 59 -26 59 -58s-26 -58 -59 -58s-59 26 -59 58s26 58 59 58z" />
    <glyph glyph-name="uni1EDD.smcp" horiz-adv-x="743" 
d="M409 658h-82l-121 138l92 -1zM630 675h83v-73c0 -88 -32 -144 -93 -167c22 -41 34 -89 34 -143c0 -179 -131 -298 -302 -298c-181 0 -304 128 -304 298c0 167 123 295 304 295c95 0 178 -37 233 -100c38 16 45 56 45 119v69zM352 71c123 0 217 91 217 221
c0 128 -94 217 -217 217c-130 0 -219 -97 -219 -217c0 -123 89 -221 219 -221z" />
    <glyph glyph-name="uni1EDF.smcp" horiz-adv-x="743" 
d="M360 776c-30 0 -58 -9 -88 -33l-20 47c24 21 68 44 126 44c51 0 90 -23 90 -77c0 -49 -52 -87 -83 -103h-66c44 32 82 65 81 93c0 21 -16 29 -40 29zM630 675h83v-73c0 -88 -32 -144 -93 -167c22 -41 34 -89 34 -143c0 -179 -131 -298 -302 -298
c-181 0 -304 128 -304 298c0 167 123 295 304 295c95 0 178 -37 233 -100c38 16 45 56 45 119v69zM352 71c123 0 217 91 217 221c0 128 -94 217 -217 217c-130 0 -219 -97 -219 -217c0 -123 89 -221 219 -221z" />
    <glyph glyph-name="uni1EE1.smcp" horiz-adv-x="743" 
d="M285 722c-27 0 -47 -21 -60 -56l-52 23c19 60 53 98 104 98c35 0 59 -14 81 -29c21 -13 41 -29 64 -29c24 0 45 20 58 55l51 -17c-18 -67 -56 -105 -100 -105c-34 0 -63 19 -88 36c-20 13 -39 24 -58 24zM630 675h83v-73c0 -88 -32 -144 -93 -167c22 -41 34 -89 34 -143
c0 -179 -131 -298 -302 -298c-181 0 -304 128 -304 298c0 167 123 295 304 295c95 0 178 -37 233 -100c38 16 45 56 45 119v69zM352 71c123 0 217 91 217 221c0 128 -94 217 -217 217c-130 0 -219 -97 -219 -217c0 -123 89 -221 219 -221z" />
    <glyph glyph-name="ohungarumlaut.smcp" horiz-adv-x="703" 
d="M229 657l118 141l85 1l-124 -142h-79zM397 657l117 141l85 1l-124 -142h-78zM352 -6c-181 0 -304 128 -304 298c0 167 123 295 304 295c171 0 302 -119 302 -295c0 -179 -131 -298 -302 -298zM352 71c123 0 217 91 217 221c0 128 -94 217 -217 217
c-130 0 -219 -97 -219 -217c0 -123 89 -221 219 -221z" />
    <glyph glyph-name="omacron.smcp" horiz-adv-x="703" 
d="M209 696v69h288v-69h-288zM352 -6c-181 0 -304 128 -304 298c0 167 123 295 304 295c171 0 302 -119 302 -295c0 -179 -131 -298 -302 -298zM352 71c123 0 217 91 217 221c0 128 -94 217 -217 217c-130 0 -219 -97 -219 -217c0 -123 89 -221 219 -221z" />
    <glyph glyph-name="uni01EB.smcp" horiz-adv-x="703" 
d="M388 -4c-43 -18 -68 -50 -68 -81c0 -27 16 -45 49 -45c26 0 34 3 47 9l6 -52c-18 -8 -41 -13 -69 -13c-61 0 -99 32 -99 84c0 31 20 69 59 98c-160 17 -265 139 -265 296c0 167 123 295 304 295c171 0 302 -119 302 -295c0 -166 -113 -281 -266 -296zM133 292
c0 -123 89 -221 219 -221c123 0 217 91 217 221c0 128 -94 217 -217 217c-130 0 -219 -97 -219 -217z" />
    <glyph glyph-name="oslash.smcp" horiz-adv-x="703" 
d="M655 559l-69 -73c43 -50 68 -117 68 -194c0 -179 -131 -298 -302 -298c-70 0 -131 19 -180 52l-66 -70l-46 42l65 69c-49 52 -77 124 -77 205c0 167 123 295 304 295c72 0 138 -21 189 -59l69 73zM133 292c0 -55 18 -106 50 -144l301 320c-36 26 -82 41 -132 41
c-130 0 -219 -97 -219 -217zM569 292c0 51 -15 96 -41 132l-299 -318c34 -22 76 -35 123 -35c123 0 217 91 217 221z" />
    <glyph glyph-name="oslashacute.smcp" horiz-adv-x="703" 
d="M517 799l-124 -142h-85l118 141zM655 559l-69 -73c43 -50 68 -117 68 -194c0 -179 -131 -298 -302 -298c-70 0 -131 19 -180 52l-66 -70l-46 42l65 69c-49 52 -77 124 -77 205c0 167 123 295 304 295c72 0 138 -21 189 -59l69 73zM133 292c0 -55 18 -106 50 -144l301 320
c-36 26 -82 41 -132 41c-130 0 -219 -97 -219 -217zM569 292c0 51 -15 96 -41 132l-299 -318c34 -22 76 -35 123 -35c123 0 217 91 217 221z" />
    <glyph glyph-name="otilde.smcp" horiz-adv-x="703" 
d="M431 662c-34 0 -63 19 -88 36c-20 13 -39 24 -58 24c-27 0 -47 -21 -60 -56l-52 23c19 60 53 98 104 98c35 0 59 -14 81 -29c21 -13 41 -29 64 -29c24 0 45 20 58 55l51 -17c-18 -67 -56 -105 -100 -105zM352 -6c-181 0 -304 128 -304 298c0 167 123 295 304 295
c171 0 302 -119 302 -295c0 -179 -131 -298 -302 -298zM352 71c123 0 217 91 217 221c0 128 -94 217 -217 217c-130 0 -219 -97 -219 -217c0 -123 89 -221 219 -221z" />
    <glyph glyph-name="oe.smcp" horiz-adv-x="818" 
d="M465 73h312v-73h-423c-182 0 -306 128 -306 292c0 162 124 288 306 288h406v-73h-295v-185h245v-73h-245v-176zM354 74l30 1v431h-30c-124 -1 -221 -91 -221 -214c0 -126 98 -218 221 -218z" />
    <glyph glyph-name="p.smcp" horiz-adv-x="530" 
d="M77 0v580h217c144 0 203 -78 203 -182c0 -125 -87 -182 -216 -182h-123v-216h-81zM158 289h123c94 0 131 46 131 111c0 69 -43 107 -121 107h-133v-218z" />
    <glyph glyph-name="thorn.smcp" horiz-adv-x="546" 
d="M77 0v580h81v-110h152c144 0 203 -79 203 -184c0 -123 -88 -180 -215 -180h-140v-106h-81zM158 179h137c95 0 133 46 133 109c0 70 -45 109 -122 109h-148v-218z" />
    <glyph glyph-name="q.smcp" horiz-adv-x="703" 
d="M654 292c0 -78 -25 -145 -68 -195l59 -54l-49 -58l-65 61c-50 -33 -111 -52 -179 -52c-181 0 -304 128 -304 298c0 167 123 295 304 295c171 0 302 -119 302 -295zM133 292c0 -123 89 -221 219 -221c45 0 86 12 120 34l-67 62l42 50l75 -68c30 38 48 86 48 143
c0 128 -95 218 -218 218c-130 0 -219 -98 -219 -218z" />
    <glyph glyph-name="r.smcp" horiz-adv-x="553" 
d="M77 0v580h220c142 0 204 -78 204 -182c0 -97 -55 -154 -148 -175l166 -223h-101l-158 216h-102v-216h-81zM158 289h125c94 0 133 46 133 111c0 69 -45 107 -123 107h-135v-218z" />
    <glyph glyph-name="racute.smcp" horiz-adv-x="553" 
d="M196 657l118 141l91 1l-124 -142h-85zM77 0v580h220c142 0 204 -78 204 -182c0 -97 -55 -154 -148 -175l166 -223h-101l-158 216h-102v-216h-81zM158 289h125c94 0 133 46 133 111c0 69 -45 107 -123 107h-135v-218z" />
    <glyph glyph-name="rcaron.smcp" horiz-adv-x="553" 
d="M240 655l-111 139h82l72 -88h2l72 88h83l-115 -139h-85zM77 0v580h220c142 0 204 -78 204 -182c0 -97 -55 -154 -148 -175l166 -223h-101l-158 216h-102v-216h-81zM158 289h125c94 0 133 46 133 111c0 69 -45 107 -123 107h-135v-218z" />
    <glyph glyph-name="rcommaaccent.smcp" horiz-adv-x="553" 
d="M77 0v580h220c142 0 204 -78 204 -182c0 -97 -55 -154 -148 -175l166 -223h-101l-158 216h-102v-216h-81zM158 289h125c94 0 133 46 133 111c0 69 -45 107 -123 107h-135v-218zM207 -212l-20 49c46 10 59 31 59 64c0 16 -2 28 -5 45h74c3 -15 4 -31 4 -49
c0 -66 -46 -103 -112 -109z" />
    <glyph glyph-name="uni1E5B.smcp" horiz-adv-x="553" 
d="M77 0v580h220c142 0 204 -78 204 -182c0 -97 -55 -154 -148 -175l166 -223h-101l-158 216h-102v-216h-81zM158 289h125c94 0 133 46 133 111c0 69 -45 107 -123 107h-135v-218zM285 -94c33 0 59 -26 59 -58s-26 -58 -59 -58s-59 26 -59 58s26 58 59 58z" />
    <glyph glyph-name="uni1E5D.smcp" horiz-adv-x="553" 
d="M141 696v69h288v-69h-288zM77 0v580h220c142 0 204 -78 204 -182c0 -97 -55 -154 -148 -175l166 -223h-101l-158 216h-102v-216h-81zM158 289h125c94 0 133 46 133 111c0 69 -45 107 -123 107h-135v-218zM285 -94c33 0 59 -26 59 -58s-26 -58 -59 -58s-59 26 -59 58
s26 58 59 58z" />
    <glyph glyph-name="uni1E5F.smcp" horiz-adv-x="553" 
d="M77 0v580h220c142 0 204 -78 204 -182c0 -97 -55 -154 -148 -175l166 -223h-101l-158 216h-102v-216h-81zM158 289h125c94 0 133 46 133 111c0 69 -45 107 -123 107h-135v-218zM429 -194h-288v69h288v-69z" />
    <glyph glyph-name="s.smcp" horiz-adv-x="496" 
d="M248 -6c-75 1 -153 29 -212 91l49 59c45 -51 110 -74 164 -75c72 -1 121 31 122 83c1 60 -51 77 -131 106c-89 31 -181 67 -181 174c1 92 82 154 186 155c68 0 140 -26 193 -69l-48 -61c-49 38 -100 55 -143 56c-53 0 -101 -27 -102 -77c-1 -55 51 -75 125 -103
c101 -38 187 -64 186 -173c-1 -112 -97 -167 -208 -166z" />
    <glyph glyph-name="sacute.smcp" horiz-adv-x="496" 
d="M197 657l118 141l91 1l-124 -142h-85zM248 -6c-75 1 -153 29 -212 91l49 59c45 -51 110 -74 164 -75c72 -1 121 31 122 83c1 60 -51 77 -131 106c-89 31 -181 67 -181 174c1 92 82 154 186 155c68 0 140 -26 193 -69l-48 -61c-49 38 -100 55 -143 56
c-53 0 -101 -27 -102 -77c-1 -55 51 -75 125 -103c101 -38 187 -64 186 -173c-1 -112 -97 -167 -208 -166z" />
    <glyph glyph-name="scaron.smcp" horiz-adv-x="496" 
d="M207 655l-111 139h82l72 -88h2l72 88h83l-115 -139h-85zM248 -6c-75 1 -153 29 -212 91l49 59c45 -51 110 -74 164 -75c72 -1 121 31 122 83c1 60 -51 77 -131 106c-89 31 -181 67 -181 174c1 92 82 154 186 155c68 0 140 -26 193 -69l-48 -61c-49 38 -100 55 -143 56
c-53 0 -101 -27 -102 -77c-1 -55 51 -75 125 -103c101 -38 187 -64 186 -173c-1 -112 -97 -167 -208 -166z" />
    <glyph glyph-name="scedilla.smcp" horiz-adv-x="496" 
d="M270 333c101 -38 187 -64 186 -173c-1 -106 -88 -161 -191 -166l-12 -25v-2c53 -2 88 -30 88 -79c0 -42 -33 -76 -107 -76c-24 0 -41 3 -56 6v44c12 -4 27 -7 48 -7c28 0 56 11 56 37c0 22 -27 42 -83 42l1 30l15 32c-65 8 -129 36 -179 89l49 59c45 -51 110 -74 164 -75
c72 -1 121 31 122 83c1 60 -51 77 -131 106c-89 31 -181 67 -181 174c1 92 82 154 186 155c68 0 140 -26 193 -69l-48 -61c-49 38 -100 55 -143 56c-53 0 -101 -27 -102 -77c-1 -55 51 -75 125 -103z" />
    <glyph glyph-name="scircumflex.smcp" horiz-adv-x="496" 
d="M96 656l115 140h85l111 -140h-81l-72 89h-2l-73 -89h-83zM248 -6c-75 1 -153 29 -212 91l49 59c45 -51 110 -74 164 -75c72 -1 121 31 122 83c1 60 -51 77 -131 106c-89 31 -181 67 -181 174c1 92 82 154 186 155c68 0 140 -26 193 -69l-48 -61c-49 38 -100 55 -143 56
c-53 0 -101 -27 -102 -77c-1 -55 51 -75 125 -103c101 -38 187 -64 186 -173c-1 -112 -97 -167 -208 -166z" />
    <glyph glyph-name="scommaaccent.smcp" horiz-adv-x="496" 
d="M248 -6c-75 1 -153 29 -212 91l49 59c45 -51 110 -74 164 -75c72 -1 121 31 122 83c1 60 -51 77 -131 106c-89 31 -181 67 -181 174c1 92 82 154 186 155c68 0 140 -26 193 -69l-48 -61c-49 38 -100 55 -143 56c-53 0 -101 -27 -102 -77c-1 -55 51 -75 125 -103
c101 -38 187 -64 186 -173c-1 -112 -97 -167 -208 -166zM186 -212l-20 49c46 10 59 31 59 64c0 16 -2 28 -5 45h74c3 -15 4 -31 4 -49c0 -66 -46 -103 -112 -109z" />
    <glyph glyph-name="uni1E61.smcp" horiz-adv-x="496" 
d="M252 676c-33 0 -59 26 -59 58s26 58 59 58s59 -26 59 -58s-26 -58 -59 -58zM248 -6c-75 1 -153 29 -212 91l49 59c45 -51 110 -74 164 -75c72 -1 121 31 122 83c1 60 -51 77 -131 106c-89 31 -181 67 -181 174c1 92 82 154 186 155c68 0 140 -26 193 -69l-48 -61
c-49 38 -100 55 -143 56c-53 0 -101 -27 -102 -77c-1 -55 51 -75 125 -103c101 -38 187 -64 186 -173c-1 -112 -97 -167 -208 -166z" />
    <glyph glyph-name="uni1E63.smcp" horiz-adv-x="496" 
d="M248 -6c-75 1 -153 29 -212 91l49 59c45 -51 110 -74 164 -75c72 -1 121 31 122 83c1 60 -51 77 -131 106c-89 31 -181 67 -181 174c1 92 82 154 186 155c68 0 140 -26 193 -69l-48 -61c-49 38 -100 55 -143 56c-53 0 -101 -27 -102 -77c-1 -55 51 -75 125 -103
c101 -38 187 -64 186 -173c-1 -112 -97 -167 -208 -166zM264 -94c33 0 59 -26 59 -58s-26 -58 -59 -58s-59 26 -59 58s26 58 59 58z" />
    <glyph glyph-name="germandbls.smcp" horiz-adv-x="647" 
d="M441 333c102 -38 188 -64 187 -173c-1 -112 -96 -167 -195 -166c-57 1 -123 23 -178 71l34 73c45 -47 102 -68 151 -69c62 -1 102 31 102 83c2 60 -51 77 -130 106c-28 10 -56 20 -82 33l100 205v1c-41 9 -86 14 -133 14c-88 0 -145 -44 -145 -137v-375h-83v373
c0 148 88 215 228 215c88 0 179 -15 241 -36l-106 -215z" />
    <glyph glyph-name="t.smcp" horiz-adv-x="494" 
d="M206 0v507h-179v73h439v-73h-179v-507h-81z" />
    <glyph glyph-name="tbar.smcp" horiz-adv-x="494" 
d="M466 507h-179v-194h105v-65h-105v-248h-81v248h-102v65h102v194h-179v73h439v-73z" />
    <glyph glyph-name="tcaron.smcp" horiz-adv-x="494" 
d="M201 655l-111 139h82l72 -88h2l72 88h83l-115 -139h-85zM206 0v507h-179v73h439v-73h-179v-507h-81z" />
    <glyph glyph-name="uni0163.smcp" horiz-adv-x="494" 
d="M257 0l-14 -31v-2c53 -2 88 -30 88 -79c0 -42 -33 -76 -107 -76c-24 0 -41 3 -56 6v44c12 -4 27 -7 48 -7c28 0 56 11 56 37c0 22 -27 42 -83 42l1 30l16 36v507h-179v73h439v-73h-179v-507h-30z" />
    <glyph glyph-name="uni021B.smcp" horiz-adv-x="494" 
d="M206 0v507h-179v73h439v-73h-179v-507h-81zM176 -212l-20 49c46 10 59 31 59 64c0 16 -2 28 -5 45h74c3 -15 4 -31 4 -49c0 -66 -46 -103 -112 -109z" />
    <glyph glyph-name="uni1E97.smcp" horiz-adv-x="494" 
d="M155 677c-33 0 -58 26 -58 58c0 31 25 56 58 56c32 0 58 -26 58 -57s-26 -57 -58 -57zM336 677c-32 0 -58 26 -58 58c0 31 26 56 58 56s58 -26 58 -57s-26 -57 -58 -57zM206 0v507h-179v73h439v-73h-179v-507h-81z" />
    <glyph glyph-name="uni1E6D.smcp" horiz-adv-x="494" 
d="M206 0v507h-179v73h439v-73h-179v-507h-81zM254 -94c33 0 59 -26 59 -58s-26 -58 -59 -58s-59 26 -59 58s26 58 59 58z" />
    <glyph glyph-name="uni1E6F.smcp" horiz-adv-x="494" 
d="M206 0v507h-179v73h439v-73h-179v-507h-81zM398 -194h-288v69h288v-69z" />
    <glyph glyph-name="u.smcp" horiz-adv-x="610" 
d="M304 -6c-139 0 -235 89 -235 244v342h81v-339c0 -99 60 -169 154 -169c91 0 156 63 156 169v339h81v-342c0 -150 -91 -244 -237 -244z" />
    <glyph glyph-name="uacute.smcp" horiz-adv-x="610" 
d="M247 657l118 141l91 1l-124 -142h-85zM304 -6c-139 0 -235 89 -235 244v342h81v-339c0 -99 60 -169 154 -169c91 0 156 63 156 169v339h81v-342c0 -150 -91 -244 -237 -244z" />
    <glyph glyph-name="ubreve.smcp" horiz-adv-x="610" 
d="M303 652c-84 0 -138 53 -144 142h65c2 -42 31 -78 79 -78c49 0 77 36 79 78h65c-6 -89 -60 -142 -144 -142zM304 -6c-139 0 -235 89 -235 244v342h81v-339c0 -99 60 -169 154 -169c91 0 156 63 156 169v339h81v-342c0 -150 -91 -244 -237 -244z" />
    <glyph glyph-name="uni01D4.smcp" horiz-adv-x="610" 
d="M258 655l-111 139h82l72 -88h2l72 88h83l-115 -139h-85zM304 -6c-139 0 -235 89 -235 244v342h81v-339c0 -99 60 -169 154 -169c91 0 156 63 156 169v339h81v-342c0 -150 -91 -244 -237 -244z" />
    <glyph glyph-name="ucircumflex.smcp" horiz-adv-x="610" 
d="M147 656l115 140h85l111 -140h-81l-72 89h-2l-73 -89h-83zM304 -6c-139 0 -235 89 -235 244v342h81v-339c0 -99 60 -169 154 -169c91 0 156 63 156 169v339h81v-342c0 -150 -91 -244 -237 -244z" />
    <glyph glyph-name="udieresis.smcp" horiz-adv-x="610" 
d="M212 677c-33 0 -58 26 -58 58c0 31 25 56 58 56c32 0 58 -26 58 -57s-26 -57 -58 -57zM393 677c-32 0 -58 26 -58 58c0 31 26 56 58 56s58 -26 58 -57s-26 -57 -58 -57zM304 -6c-139 0 -235 89 -235 244v342h81v-339c0 -99 60 -169 154 -169c91 0 156 63 156 169v339h81
v-342c0 -150 -91 -244 -237 -244z" />
    <glyph glyph-name="uni01D8.smcp" horiz-adv-x="610" 
d="M279 793l97 141h91l-124 -141h-64zM218 665c-31 0 -55 23 -55 52s24 53 55 53s55 -24 55 -53s-24 -52 -55 -52zM399 665c-31 0 -55 23 -55 52s24 53 55 53s55 -24 55 -53s-24 -52 -55 -52zM304 -6c-139 0 -235 89 -235 244v342h81v-339c0 -99 60 -169 154 -169
c91 0 156 63 156 169v339h81v-342c0 -150 -91 -244 -237 -244z" />
    <glyph glyph-name="uni01DA.smcp" horiz-adv-x="610" 
d="M267 803l-113 124h82l73 -78h2l75 78h82l-116 -124h-85zM218 665c-31 0 -55 23 -55 52s24 53 55 53s55 -24 55 -53s-24 -52 -55 -52zM399 665c-31 0 -55 23 -55 52s24 53 55 53s55 -24 55 -53s-24 -52 -55 -52zM304 -6c-139 0 -235 89 -235 244v342h81v-339
c0 -99 60 -169 154 -169c91 0 156 63 156 169v339h81v-342c0 -150 -91 -244 -237 -244z" />
    <glyph glyph-name="uni01DC.smcp" horiz-adv-x="610" 
d="M281 793l-124 141h92l96 -141h-64zM218 665c-31 0 -55 23 -55 52s24 53 55 53s55 -24 55 -53s-24 -52 -55 -52zM399 665c-31 0 -55 23 -55 52s24 53 55 53s55 -24 55 -53s-24 -52 -55 -52zM304 -6c-139 0 -235 89 -235 244v342h81v-339c0 -99 60 -169 154 -169
c91 0 156 63 156 169v339h81v-342c0 -150 -91 -244 -237 -244z" />
    <glyph glyph-name="uni01D6.smcp" horiz-adv-x="610" 
d="M167 828v57h288v-57h-288zM218 665c-31 0 -55 23 -55 52s24 53 55 53s55 -24 55 -53s-24 -52 -55 -52zM399 665c-31 0 -55 23 -55 52s24 53 55 53s55 -24 55 -53s-24 -52 -55 -52zM304 -6c-139 0 -235 89 -235 244v342h81v-339c0 -99 60 -169 154 -169
c91 0 156 63 156 169v339h81v-342c0 -150 -91 -244 -237 -244z" />
    <glyph glyph-name="uni1EE5.smcp" horiz-adv-x="610" 
d="M304 -6c-139 0 -235 89 -235 244v342h81v-339c0 -99 60 -169 154 -169c91 0 156 63 156 169v339h81v-342c0 -150 -91 -244 -237 -244zM304 -94c33 0 59 -26 59 -58s-26 -58 -59 -58s-59 26 -59 58s26 58 59 58z" />
    <glyph glyph-name="ugrave.smcp" horiz-adv-x="610" 
d="M279 658l-121 138l92 -1l111 -137h-82zM304 -6c-139 0 -235 89 -235 244v342h81v-339c0 -99 60 -169 154 -169c91 0 156 63 156 169v339h81v-342c0 -150 -91 -244 -237 -244z" />
    <glyph glyph-name="uni1EE7.smcp" horiz-adv-x="610" 
d="M269 654c44 32 82 65 81 93c0 21 -16 29 -40 29c-30 0 -58 -9 -88 -33l-20 47c24 21 68 44 126 44c51 0 90 -23 90 -77c0 -49 -52 -87 -83 -103h-66zM304 -6c-139 0 -235 89 -235 244v342h81v-339c0 -99 60 -169 154 -169c91 0 156 63 156 169v339h81v-342
c0 -150 -91 -244 -237 -244z" />
    <glyph glyph-name="uhorn.smcp" horiz-adv-x="694" 
d="M610 662h83v-73c0 -113 -54 -174 -152 -177v-174c0 -150 -91 -244 -237 -244c-139 0 -235 89 -235 244v342h81v-339c0 -99 60 -169 154 -169c91 0 156 63 156 169v339h81v-112c60 9 69 51 69 125v69z" />
    <glyph glyph-name="uni1EE9.smcp" horiz-adv-x="694" 
d="M453 799l-124 -142h-85l118 141zM610 662h83v-73c0 -113 -54 -174 -152 -177v-174c0 -150 -91 -244 -237 -244c-139 0 -235 89 -235 244v342h81v-339c0 -99 60 -169 154 -169c91 0 156 63 156 169v339h81v-112c60 9 69 51 69 125v69z" />
    <glyph glyph-name="uni1EF1.smcp" horiz-adv-x="694" 
d="M610 662h83v-73c0 -113 -54 -174 -152 -177v-174c0 -150 -91 -244 -237 -244c-139 0 -235 89 -235 244v342h81v-339c0 -99 60 -169 154 -169c91 0 156 63 156 169v339h81v-112c60 9 69 51 69 125v69zM304 -94c33 0 59 -26 59 -58s-26 -58 -59 -58s-59 26 -59 58
s26 58 59 58z" />
    <glyph glyph-name="uni1EEB.smcp" horiz-adv-x="694" 
d="M357 658h-82l-121 138l92 -1zM610 662h83v-73c0 -113 -54 -174 -152 -177v-174c0 -150 -91 -244 -237 -244c-139 0 -235 89 -235 244v342h81v-339c0 -99 60 -169 154 -169c91 0 156 63 156 169v339h81v-112c60 9 69 51 69 125v69z" />
    <glyph glyph-name="uni1EED.smcp" horiz-adv-x="694" 
d="M310 776c-30 0 -58 -9 -88 -33l-20 47c24 21 68 44 126 44c51 0 90 -23 90 -77c0 -49 -52 -87 -83 -103h-66c44 32 82 65 81 93c0 21 -16 29 -40 29zM610 662h83v-73c0 -113 -54 -174 -152 -177v-174c0 -150 -91 -244 -237 -244c-139 0 -235 89 -235 244v342h81v-339
c0 -99 60 -169 154 -169c91 0 156 63 156 169v339h81v-112c60 9 69 51 69 125v69z" />
    <glyph glyph-name="uni1EEF.smcp" horiz-adv-x="694" 
d="M235 722c-27 0 -47 -21 -60 -56l-52 23c19 60 53 98 104 98c35 0 59 -14 81 -29c21 -13 41 -29 64 -29c24 0 45 20 58 55l51 -17c-18 -67 -56 -105 -100 -105c-34 0 -63 19 -88 36c-20 13 -39 24 -58 24zM610 662h83v-73c0 -113 -54 -174 -152 -177v-174
c0 -150 -91 -244 -237 -244c-139 0 -235 89 -235 244v342h81v-339c0 -99 60 -169 154 -169c91 0 156 63 156 169v339h81v-112c60 9 69 51 69 125v69z" />
    <glyph glyph-name="uhungarumlaut.smcp" horiz-adv-x="610" 
d="M179 657l118 141l85 1l-124 -142h-79zM347 657l117 141l85 1l-124 -142h-78zM304 -6c-139 0 -235 89 -235 244v342h81v-339c0 -99 60 -169 154 -169c91 0 156 63 156 169v339h81v-342c0 -150 -91 -244 -237 -244z" />
    <glyph glyph-name="umacron.smcp" horiz-adv-x="610" 
d="M159 696v69h288v-69h-288zM304 -6c-139 0 -235 89 -235 244v342h81v-339c0 -99 60 -169 154 -169c91 0 156 63 156 169v339h81v-342c0 -150 -91 -244 -237 -244z" />
    <glyph glyph-name="uogonek.smcp" horiz-adv-x="610" 
d="M460 580h81v-342c0 -127 -65 -214 -174 -237c-48 -21 -77 -53 -77 -88c0 -27 16 -46 51 -46c27 0 35 3 49 9l6 -45c-17 -9 -40 -13 -69 -13c-60 0 -99 33 -99 84c0 30 15 65 50 93h-1c-124 11 -208 98 -208 243v342h81v-339c0 -99 60 -169 154 -169c91 0 156 63 156 169
v339z" />
    <glyph glyph-name="uring.smcp" horiz-adv-x="610" 
d="M302 645c-51 0 -95 42 -95 94c0 51 41 94 95 94s97 -41 97 -94c0 -50 -41 -94 -97 -94zM302 698c25 0 44 19 44 42s-19 42 -44 42c-23 0 -42 -19 -42 -42c0 -24 19 -42 42 -42zM304 -6c-139 0 -235 89 -235 244v342h81v-339c0 -99 60 -169 154 -169c91 0 156 63 156 169
v339h81v-342c0 -150 -91 -244 -237 -244z" />
    <glyph glyph-name="utilde.smcp" horiz-adv-x="610" 
d="M381 662c-34 0 -63 19 -88 36c-20 13 -39 24 -58 24c-27 0 -47 -21 -60 -56l-52 23c19 60 53 98 104 98c35 0 59 -14 81 -29c21 -13 41 -29 64 -29c24 0 45 20 58 55l51 -17c-18 -67 -56 -105 -100 -105zM304 -6c-139 0 -235 89 -235 244v342h81v-339
c0 -99 60 -169 154 -169c91 0 156 63 156 169v339h81v-342c0 -150 -91 -244 -237 -244z" />
    </font>
</defs>
</svg>
