<?xml version="1.0" standalone="no"?>
<!DOCTYPE svg PUBLIC "-//W3C//DTD SVG 1.1//EN" "http://www.w3.org/Graphics/SVG/1.1/DTD/svg11.dtd" >
<svg xmlns="http://www.w3.org/2000/svg" xmlns:xlink="http://www.w3.org/1999/xlink" version="1.1">
<metadata>
Created by FontForge 20170910 at Sat Jul 15 12:16:33 2017
 By Jimmy Wärting
Copyright \(c\) 2015 by Kostas Bartsokas. All rights reserved.
</metadata>
<defs>
<font id="AvertaCY-Bold" horiz-adv-x="586" >
  <font-face 
    font-family="Averta CY Bold"
    font-weight="700"
    font-stretch="normal"
    units-per-em="1000"
    panose-1="0 0 8 0 0 0 0 0 0 0"
    ascent="800"
    descent="-200"
    x-height="489"
    cap-height="710"
    bbox="-695 -257 1430 1058"
    underline-thickness="53"
    underline-position="-90"
    stemh="96"
    stemv="102"
    unicode-range="U+000D-2E18"
  />
<missing-glyph horiz-adv-x="446" 
 />
    <glyph glyph-name=".notdef" horiz-adv-x="446" 
 />
    <glyph glyph-name="space" unicode=" " horiz-adv-x="257" 
 />
    <glyph glyph-name="A" unicode="A" horiz-adv-x="694" 
d="M16 0l263 710h136l264 -710h-147l-49 142h-272l-48 -142h-147zM251 262h192l-95 278h-2z" />
    <glyph glyph-name="Aacute" unicode="&#xc1;" horiz-adv-x="694" 
d="M287 769l111 135h139l-126 -135h-124zM16 0l263 710h136l264 -710h-147l-49 142h-272l-48 -142h-147zM251 262h192l-95 278h-2z" />
    <glyph glyph-name="Abreve" unicode="&#x102;" horiz-adv-x="694" 
d="M347 762c-98 0 -156 54 -163 142h99c2 -29 25 -50 64 -50c38 0 62 22 64 50h99c-7 -84 -61 -142 -163 -142zM16 0l263 710h136l264 -710h-147l-49 142h-272l-48 -142h-147zM251 262h192l-95 278h-2z" />
    <glyph glyph-name="uni1EAE" unicode="&#x1eae;" horiz-adv-x="694" 
d="M302 897l82 134h134l-121 -134h-95zM347 758c-103 0 -164 50 -172 131h105c2 -27 26 -46 67 -46c40 0 65 20 67 46h105c-8 -77 -64 -131 -172 -131zM16 0l263 710h136l264 -710h-147l-49 142h-272l-48 -142h-147zM251 262h192l-95 278h-2z" />
    <glyph glyph-name="uni1EB6" unicode="&#x1eb6;" horiz-adv-x="694" 
d="M347 762c-98 0 -156 54 -163 142h99c2 -29 25 -50 64 -50c38 0 62 22 64 50h99c-7 -84 -61 -142 -163 -142zM16 0l263 710h136l264 -710h-147l-49 142h-272l-48 -142h-147zM251 262h192l-95 278h-2zM348 -69c48 0 83 -36 83 -81c0 -44 -35 -80 -83 -80
c-47 0 -83 36 -83 80c0 45 36 81 83 81z" />
    <glyph glyph-name="uni1EB0" unicode="&#x1eb0;" horiz-adv-x="694" 
d="M308 898l-121 135l135 -1l81 -134h-95zM347 758c-103 0 -164 50 -172 131h105c2 -27 26 -46 67 -46c40 0 65 20 67 46h105c-8 -77 -64 -131 -172 -131zM16 0l263 710h136l264 -710h-147l-49 142h-272l-48 -142h-147zM251 262h192l-95 278h-2z" />
    <glyph glyph-name="uni1EB2" unicode="&#x1eb2;" horiz-adv-x="694" 
d="M297 890c30 20 58 40 58 60c0 10 -8 18 -26 18c-23 0 -51 -12 -73 -24l-25 55c23 19 70 42 130 42c53 0 89 -23 89 -70c0 -42 -40 -68 -76 -81h-77zM347 758c-103 0 -164 50 -172 131h105c2 -27 26 -46 67 -46c40 0 65 20 67 46h105c-8 -77 -64 -131 -172 -131zM16 0
l263 710h136l264 -710h-147l-49 142h-272l-48 -142h-147zM251 262h192l-95 278h-2z" />
    <glyph glyph-name="uni1EB4" unicode="&#x1eb4;" horiz-adv-x="694" 
d="M421 910c-30 0 -55 12 -80 26c-20 11 -39 20 -56 20c-21 0 -37 -17 -50 -46l-73 30c20 56 57 101 113 101c38 0 63 -13 83 -26c19 -11 34 -20 53 -20c20 0 35 15 48 46l72 -24c-20 -67 -58 -107 -110 -107zM347 758c-103 0 -164 50 -172 131h105c2 -27 26 -46 67 -46
c40 0 65 20 67 46h105c-8 -77 -64 -131 -172 -131zM16 0l263 710h136l264 -710h-147l-49 142h-272l-48 -142h-147zM251 262h192l-95 278h-2z" />
    <glyph glyph-name="uni01CD" unicode="&#x1cd;" horiz-adv-x="694" 
d="M277 769l-104 135h121l51 -68h2l52 68h121l-104 -135h-139zM16 0l263 710h136l264 -710h-147l-49 142h-272l-48 -142h-147zM251 262h192l-95 278h-2z" />
    <glyph glyph-name="Acircumflex" unicode="&#xc2;" horiz-adv-x="694" 
d="M173 769l104 135h139l104 -135h-121l-52 68h-2l-52 -68h-120zM16 0l263 710h136l264 -710h-147l-49 142h-272l-48 -142h-147zM251 262h192l-95 278h-2z" />
    <glyph glyph-name="uni1EA4" unicode="&#x1ea4;" horiz-adv-x="694" 
d="M504 827l81 139l135 1l-120 -140h-96zM173 769l104 135h139l104 -135h-121l-52 68h-2l-52 -68h-120zM16 0l263 710h136l264 -710h-147l-49 142h-272l-48 -142h-147zM251 262h192l-95 278h-2z" />
    <glyph glyph-name="uni1EAC" unicode="&#x1eac;" horiz-adv-x="694" 
d="M173 769l104 135h139l104 -135h-121l-52 68h-2l-52 -68h-120zM16 0l263 710h136l264 -710h-147l-49 142h-272l-48 -142h-147zM251 262h192l-95 278h-2zM348 -69c48 0 83 -36 83 -81c0 -44 -35 -80 -83 -80c-47 0 -83 36 -83 80c0 45 36 81 83 81z" />
    <glyph glyph-name="uni1EA6" unicode="&#x1ea6;" horiz-adv-x="694" 
d="M550 826l-120 140h135l81 -140h-96zM173 769l104 135h139l104 -135h-121l-52 68h-2l-52 -68h-120zM16 0l263 710h136l264 -710h-147l-49 142h-272l-48 -142h-147zM251 262h192l-95 278h-2z" />
    <glyph glyph-name="uni1EA8" unicode="&#x1ea8;" horiz-adv-x="694" 
d="M511 839c30 20 58 40 58 60c0 10 -8 18 -26 18c-23 0 -51 -12 -73 -24l-25 55c23 19 70 42 130 42c53 0 89 -23 89 -70c0 -42 -40 -68 -76 -81h-77zM173 769l104 135h139l104 -135h-121l-52 68h-2l-52 -68h-120zM16 0l263 710h136l264 -710h-147l-49 142h-272l-48 -142
h-147zM251 262h192l-95 278h-2z" />
    <glyph glyph-name="uni1EAA" unicode="&#x1eaa;" horiz-adv-x="694" 
d="M422 927c-30 0 -55 12 -80 26c-20 11 -39 20 -56 20c-21 0 -37 -17 -50 -46l-73 30c20 56 57 101 113 101c38 0 63 -13 83 -26c19 -11 34 -20 53 -20c20 0 35 15 48 46l72 -24c-20 -67 -58 -107 -110 -107zM173 769l104 135h139l104 -135h-121l-52 68h-2l-52 -68h-120z
M16 0l263 710h136l264 -710h-147l-49 142h-272l-48 -142h-147zM251 262h192l-95 278h-2z" />
    <glyph glyph-name="Adieresis" unicode="&#xc4;" horiz-adv-x="694" 
d="M241 767c-46 0 -82 36 -82 80c0 43 36 79 82 79c47 0 83 -36 83 -80s-36 -79 -83 -79zM451 767c-47 0 -82 36 -82 80c0 43 35 79 82 79c46 0 83 -36 83 -80s-37 -79 -83 -79zM16 0l263 710h136l264 -710h-147l-49 142h-272l-48 -142h-147zM251 262h192l-95 278h-2z" />
    <glyph glyph-name="uni1EA0" unicode="&#x1ea0;" horiz-adv-x="694" 
d="M16 0l263 710h136l264 -710h-147l-49 142h-272l-48 -142h-147zM251 262h192l-95 278h-2zM348 -69c48 0 83 -36 83 -81c0 -44 -35 -80 -83 -80c-47 0 -83 36 -83 80c0 45 36 81 83 81z" />
    <glyph glyph-name="Agrave" unicode="&#xc0;" horiz-adv-x="694" 
d="M294 769l-126 135h140l111 -135h-125zM16 0l263 710h136l264 -710h-147l-49 142h-272l-48 -142h-147zM251 262h192l-95 278h-2z" />
    <glyph glyph-name="uni1EA2" unicode="&#x1ea2;" horiz-adv-x="694" 
d="M306 769c33 22 64 45 64 67c0 11 -9 20 -29 20c-25 0 -56 -13 -81 -27l-27 61c25 21 77 47 144 47c59 0 99 -26 99 -78c0 -46 -44 -75 -84 -90h-86zM16 0l263 710h136l264 -710h-147l-49 142h-272l-48 -142h-147zM251 262h192l-95 278h-2z" />
    <glyph glyph-name="Amacron" unicode="&#x100;" horiz-adv-x="694" 
d="M194 788v100h305v-100h-305zM16 0l263 710h136l264 -710h-147l-49 142h-272l-48 -142h-147zM251 262h192l-95 278h-2z" />
    <glyph glyph-name="Aogonek" unicode="&#x104;" horiz-adv-x="694" 
d="M609 -113c23 0 29 3 39 7l7 -72c-20 -8 -47 -11 -73 -11c-70 0 -114 37 -114 90c0 32 21 72 63 101l-48 140h-272l-48 -142h-147l263 710h136l264 -710h-30c-51 -9 -81 -41 -81 -72c0 -25 15 -41 41 -41zM251 262h192l-95 278h-2z" />
    <glyph glyph-name="Aring" unicode="&#xc5;" horiz-adv-x="694" 
d="M347 746c-59 0 -109 44 -109 105c0 58 45 106 109 106c60 0 109 -45 109 -106c0 -57 -44 -105 -109 -105zM347 815c21 0 37 17 37 38c0 20 -16 36 -37 36s-37 -17 -37 -37c0 -21 16 -37 37 -37zM16 0l263 710h136l264 -710h-147l-49 142h-272l-48 -142h-147zM251 262h192
l-95 278h-2z" />
    <glyph glyph-name="Aringacute" unicode="&#x1fa;" horiz-adv-x="694" 
d="M347 746c-59 0 -109 44 -109 105c0 58 45 106 109 106c28 0 55 -10 74 -27l61 46l140 1l-166 -132c-3 -54 -46 -99 -109 -99zM347 889c-21 0 -37 -17 -37 -37c0 -21 16 -37 37 -37s37 17 37 38c0 20 -16 36 -37 36zM415 710l264 -710h-147l-49 142h-272l-48 -142h-147
l263 710h136zM251 262h192l-95 278h-2z" />
    <glyph glyph-name="Atilde" unicode="&#xc3;" horiz-adv-x="694" 
d="M428 769c-32 0 -59 13 -85 28c-22 12 -42 22 -60 22c-22 0 -40 -18 -53 -49l-78 32c21 60 61 108 120 108c41 0 67 -14 89 -28c20 -11 36 -21 56 -21c22 0 38 16 52 49l77 -25c-22 -72 -62 -116 -118 -116zM16 0l263 710h136l264 -710h-147l-49 142h-272l-48 -142h-147z
M251 262h192l-95 278h-2z" />
    <glyph glyph-name="AE" unicode="&#xc6;" horiz-adv-x="942" 
d="M7 0l340 710h537v-125h-316v-170h258v-124h-258v-166h337v-125h-475v142h-210l-67 -142h-146zM274 259h159v333h-2z" />
    <glyph glyph-name="AEacute" unicode="&#x1fc;" horiz-adv-x="942" 
d="M396 769l111 135h139l-126 -135h-124zM7 0l340 710h537v-125h-316v-170h258v-124h-258v-166h337v-125h-475v142h-210l-67 -142h-146zM274 259h159v333h-2z" />
    <glyph glyph-name="B" unicode="B" horiz-adv-x="642" 
d="M77 0v710h256c151 0 233 -60 233 -173c0 -64 -30 -129 -107 -159v-2c91 -22 143 -86 143 -180c0 -113 -76 -196 -234 -196h-291zM216 420h106c61 0 102 25 102 83c0 50 -31 83 -108 83h-100v-166zM216 124h132c67 0 108 30 108 90c0 56 -41 92 -122 92h-118v-182z" />
    <glyph glyph-name="C" unicode="C" horiz-adv-x="722" 
d="M410 -7c-198 0 -362 126 -362 360c0 203 130 366 360 366c102 0 207 -44 283 -137l-104 -87c-46 56 -106 90 -179 90c-121 0 -213 -90 -213 -232c0 -132 88 -227 215 -227c74 0 136 37 179 90l103 -89c-61 -76 -157 -134 -282 -134z" />
    <glyph glyph-name="Cacute" unicode="&#x106;" horiz-adv-x="722" 
d="M326 769l111 135h139l-126 -135h-124zM410 -7c-198 0 -362 126 -362 360c0 203 130 366 360 366c102 0 207 -44 283 -137l-104 -87c-46 56 -106 90 -179 90c-121 0 -213 -90 -213 -232c0 -132 88 -227 215 -227c74 0 136 37 179 90l103 -89c-61 -76 -157 -134 -282 -134z
" />
    <glyph glyph-name="Ccaron" unicode="&#x10c;" horiz-adv-x="722" 
d="M338 769l-104 135h121l51 -68h2l52 68h121l-104 -135h-139zM410 -7c-198 0 -362 126 -362 360c0 203 130 366 360 366c102 0 207 -44 283 -137l-104 -87c-46 56 -106 90 -179 90c-121 0 -213 -90 -213 -232c0 -132 88 -227 215 -227c74 0 136 37 179 90l103 -89
c-61 -76 -157 -134 -282 -134z" />
    <glyph glyph-name="Ccedilla" unicode="&#xc7;" horiz-adv-x="722" 
d="M417 -7l-11 -22v-2c65 -2 98 -31 98 -81c0 -45 -39 -79 -128 -79c-29 0 -46 3 -61 6v59c12 -4 27 -7 48 -7c22 0 48 7 48 28c0 18 -29 32 -79 32v37l16 33c-169 24 -300 147 -300 356c0 203 130 366 360 366c102 0 207 -44 283 -137l-104 -87c-46 56 -106 90 -179 90
c-121 0 -213 -90 -213 -232c0 -132 88 -227 215 -227c74 0 136 37 179 90l103 -89c-60 -75 -153 -132 -275 -134z" />
    <glyph glyph-name="Ccircumflex" unicode="&#x108;" horiz-adv-x="722" 
d="M234 769l104 135h139l104 -135h-121l-52 68h-2l-52 -68h-120zM410 -7c-198 0 -362 126 -362 360c0 203 130 366 360 366c102 0 207 -44 283 -137l-104 -87c-46 56 -106 90 -179 90c-121 0 -213 -90 -213 -232c0 -132 88 -227 215 -227c74 0 136 37 179 90l103 -89
c-61 -76 -157 -134 -282 -134z" />
    <glyph glyph-name="Cdotaccent" unicode="&#x10a;" horiz-adv-x="722" 
d="M409 765c-48 0 -83 36 -83 81c0 44 35 80 83 80c47 0 83 -36 83 -80c0 -45 -36 -81 -83 -81zM410 -7c-198 0 -362 126 -362 360c0 203 130 366 360 366c102 0 207 -44 283 -137l-104 -87c-46 56 -106 90 -179 90c-121 0 -213 -90 -213 -232c0 -132 88 -227 215 -227
c74 0 136 37 179 90l103 -89c-61 -76 -157 -134 -282 -134z" />
    <glyph glyph-name="D" unicode="D" horiz-adv-x="728" 
d="M77 0v710h235c225 0 369 -146 369 -356c0 -209 -138 -354 -366 -354h-238zM216 125h90c138 0 228 99 228 229c0 133 -91 231 -220 231h-98v-460z" />
    <glyph glyph-name="Eth" unicode="&#xd0;" horiz-adv-x="728" 
d="M312 710c225 0 369 -146 369 -356c0 -209 -138 -354 -366 -354h-238v292h-54v118h54v300h235zM306 125c138 0 228 99 228 229c0 133 -91 231 -220 231h-98v-175h154v-118h-154v-167h90z" />
    <glyph glyph-name="Dcaron" unicode="&#x10e;" horiz-adv-x="728" 
d="M283 768l-104 135h121l51 -68h2l52 68h121l-104 -135h-139zM77 0v710h235c225 0 369 -146 369 -356c0 -209 -138 -354 -366 -354h-238zM216 125h90c138 0 228 99 228 229c0 133 -91 231 -220 231h-98v-460z" />
    <glyph glyph-name="Dcroat" unicode="&#x110;" horiz-adv-x="728" 
d="M312 710c225 0 369 -146 369 -356c0 -209 -138 -354 -366 -354h-238v292h-54v118h54v300h235zM306 125c138 0 228 99 228 229c0 133 -91 231 -220 231h-98v-175h154v-118h-154v-167h90z" />
    <glyph glyph-name="uni1E0C" unicode="&#x1e0c;" horiz-adv-x="728" 
d="M77 0v710h235c225 0 369 -146 369 -356c0 -209 -138 -354 -366 -354h-238zM216 125h90c138 0 228 99 228 229c0 133 -91 231 -220 231h-98v-460zM345 -69c48 0 83 -36 83 -81c0 -44 -35 -80 -83 -80c-47 0 -83 36 -83 80c0 45 36 81 83 81z" />
    <glyph glyph-name="uni1E0E" unicode="&#x1e0e;" horiz-adv-x="728" 
d="M77 0v710h235c225 0 369 -146 369 -356c0 -209 -138 -354 -366 -354h-238zM216 125h90c138 0 228 99 228 229c0 133 -91 231 -220 231h-98v-460zM498 -213h-305v105h305v-105z" />
    <glyph glyph-name="E" unicode="E" horiz-adv-x="598" 
d="M77 0v710h454v-125h-315v-171h252v-123h-252v-166h336v-125h-475z" />
    <glyph glyph-name="Eacute" unicode="&#xc9;" horiz-adv-x="598" 
d="M204 768l111 135h139l-126 -135h-124zM77 0v710h454v-125h-315v-171h252v-123h-252v-166h336v-125h-475z" />
    <glyph glyph-name="Ebreve" unicode="&#x114;" horiz-adv-x="598" 
d="M311 761c-98 0 -156 54 -163 142h99c2 -29 25 -50 64 -50c38 0 62 22 64 50h99c-7 -84 -61 -142 -163 -142zM77 0v710h454v-125h-315v-171h252v-123h-252v-166h336v-125h-475z" />
    <glyph glyph-name="Ecaron" unicode="&#x11a;" horiz-adv-x="598" 
d="M241 768l-104 135h121l51 -68h2l52 68h121l-104 -135h-139zM77 0v710h454v-125h-315v-171h252v-123h-252v-166h336v-125h-475z" />
    <glyph glyph-name="Ecircumflex" unicode="&#xca;" horiz-adv-x="598" 
d="M137 768l104 135h139l104 -135h-121l-52 68h-2l-52 -68h-120zM77 0v710h454v-125h-315v-171h252v-123h-252v-166h336v-125h-475z" />
    <glyph glyph-name="uni1EBE" unicode="&#x1ebe;" horiz-adv-x="598" 
d="M468 826l81 139l135 1l-120 -140h-96zM137 768l104 135h139l104 -135h-121l-52 68h-2l-52 -68h-120zM77 0v710h454v-125h-315v-171h252v-123h-252v-166h336v-125h-475z" />
    <glyph glyph-name="uni1EC6" unicode="&#x1ec6;" horiz-adv-x="598" 
d="M137 768l104 135h139l104 -135h-121l-52 68h-2l-52 -68h-120zM77 0v710h454v-125h-315v-171h252v-123h-252v-166h336v-125h-475zM318 -69c48 0 83 -36 83 -81c0 -44 -35 -80 -83 -80c-47 0 -83 36 -83 80c0 45 36 81 83 81z" />
    <glyph glyph-name="uni1EC0" unicode="&#x1ec0;" horiz-adv-x="598" 
d="M514 825l-120 140h135l81 -140h-96zM137 768l104 135h139l104 -135h-121l-52 68h-2l-52 -68h-120zM77 0v710h454v-125h-315v-171h252v-123h-252v-166h336v-125h-475z" />
    <glyph glyph-name="uni1EC2" unicode="&#x1ec2;" horiz-adv-x="598" 
d="M475 838c30 20 58 40 58 60c0 10 -8 18 -26 18c-23 0 -51 -12 -73 -24l-25 55c23 19 70 42 130 42c53 0 89 -23 89 -70c0 -42 -40 -68 -76 -81h-77zM137 768l104 135h139l104 -135h-121l-52 68h-2l-52 -68h-120zM77 0v710h454v-125h-315v-171h252v-123h-252v-166h336
v-125h-475z" />
    <glyph glyph-name="uni1EC4" unicode="&#x1ec4;" horiz-adv-x="598" 
d="M386 926c-30 0 -55 12 -80 26c-20 11 -39 20 -56 20c-21 0 -37 -17 -50 -46l-73 30c20 56 57 101 113 101c38 0 63 -13 83 -26c19 -11 34 -20 53 -20c20 0 35 15 48 46l72 -24c-20 -67 -58 -107 -110 -107zM137 768l104 135h139l104 -135h-121l-52 68h-2l-52 -68h-120z
M77 0v710h454v-125h-315v-171h252v-123h-252v-166h336v-125h-475z" />
    <glyph glyph-name="Edieresis" unicode="&#xcb;" horiz-adv-x="598" 
d="M205 766c-46 0 -82 36 -82 80c0 43 36 79 82 79c47 0 83 -36 83 -80s-36 -79 -83 -79zM415 766c-47 0 -82 36 -82 80c0 43 35 79 82 79c46 0 83 -36 83 -80s-37 -79 -83 -79zM77 0v710h454v-125h-315v-171h252v-123h-252v-166h336v-125h-475z" />
    <glyph glyph-name="Edotaccent" unicode="&#x116;" horiz-adv-x="598" 
d="M312 764c-48 0 -83 36 -83 81c0 44 35 80 83 80c47 0 83 -36 83 -80c0 -45 -36 -81 -83 -81zM77 0v710h454v-125h-315v-171h252v-123h-252v-166h336v-125h-475z" />
    <glyph glyph-name="uni1EB8" unicode="&#x1eb8;" horiz-adv-x="598" 
d="M77 0v710h454v-125h-315v-171h252v-123h-252v-166h336v-125h-475zM318 -69c48 0 83 -36 83 -81c0 -44 -35 -80 -83 -80c-47 0 -83 36 -83 80c0 45 36 81 83 81z" />
    <glyph glyph-name="Egrave" unicode="&#xc8;" horiz-adv-x="598" 
d="M296 768l-126 135h140l111 -135h-125zM77 0v710h454v-125h-315v-171h252v-123h-252v-166h336v-125h-475z" />
    <glyph glyph-name="uni1EBA" unicode="&#x1eba;" horiz-adv-x="598" 
d="M270 768c33 22 64 45 64 67c0 11 -9 20 -29 20c-25 0 -56 -13 -81 -27l-27 61c25 21 77 47 144 47c59 0 99 -26 99 -78c0 -46 -44 -75 -84 -90h-86zM77 0v710h454v-125h-315v-171h252v-123h-252v-166h336v-125h-475z" />
    <glyph glyph-name="Emacron" unicode="&#x112;" horiz-adv-x="598" 
d="M158 787v100h305v-100h-305zM77 0v710h454v-125h-315v-171h252v-123h-252v-166h336v-125h-475z" />
    <glyph glyph-name="Eogonek" unicode="&#x118;" horiz-adv-x="598" 
d="M539 0c-51 -9 -81 -41 -81 -72c0 -25 15 -41 41 -41c23 0 29 3 39 7l7 -72c-20 -8 -47 -11 -73 -11c-70 0 -114 37 -114 90c0 31 20 71 61 99h-342v710h454v-125h-315v-171h252v-123h-252v-166h336v-125h-13z" />
    <glyph glyph-name="uni1EBC" unicode="&#x1ebc;" horiz-adv-x="598" 
d="M392 768c-32 0 -59 13 -85 28c-22 12 -42 22 -60 22c-22 0 -40 -18 -53 -49l-78 32c21 60 61 108 120 108c41 0 67 -14 89 -28c20 -11 36 -21 56 -21c22 0 38 16 52 49l77 -25c-22 -72 -62 -116 -118 -116zM77 0v710h454v-125h-315v-171h252v-123h-252v-166h336v-125
h-475z" />
    <glyph glyph-name="F" unicode="F" 
d="M77 0v710h471v-125h-332v-190h277v-126h-277v-269h-139z" />
    <glyph glyph-name="G" unicode="G" horiz-adv-x="750" 
d="M410 -7c-205 0 -362 133 -362 361c0 208 134 365 356 365c101 0 209 -40 282 -121l-99 -86c-44 44 -105 74 -183 74c-117 0 -209 -87 -209 -232c0 -131 82 -233 215 -233c51 0 98 13 143 41v104h-159v121h296v-306c-65 -52 -171 -88 -280 -88z" />
    <glyph glyph-name="Gbreve" unicode="&#x11e;" horiz-adv-x="750" 
d="M398 761c-98 0 -156 54 -163 142h99c2 -29 25 -50 64 -50c38 0 62 22 64 50h99c-7 -84 -61 -142 -163 -142zM410 -7c-205 0 -362 133 -362 361c0 208 134 365 356 365c101 0 209 -40 282 -121l-99 -86c-44 44 -105 74 -183 74c-117 0 -209 -87 -209 -232
c0 -131 82 -233 215 -233c51 0 98 13 143 41v104h-159v121h296v-306c-65 -52 -171 -88 -280 -88z" />
    <glyph glyph-name="Gcaron" unicode="&#x1e6;" horiz-adv-x="750" 
d="M328 768l-104 135h121l51 -68h2l52 68h121l-104 -135h-139zM410 -7c-205 0 -362 133 -362 361c0 208 134 365 356 365c101 0 209 -40 282 -121l-99 -86c-44 44 -105 74 -183 74c-117 0 -209 -87 -209 -232c0 -131 82 -233 215 -233c51 0 98 13 143 41v104h-159v121h296
v-306c-65 -52 -171 -88 -280 -88z" />
    <glyph glyph-name="Gcircumflex" unicode="&#x11c;" horiz-adv-x="750" 
d="M224 768l104 135h139l104 -135h-121l-52 68h-2l-52 -68h-120zM410 -7c-205 0 -362 133 -362 361c0 208 134 365 356 365c101 0 209 -40 282 -121l-99 -86c-44 44 -105 74 -183 74c-117 0 -209 -87 -209 -232c0 -131 82 -233 215 -233c51 0 98 13 143 41v104h-159v121h296
v-306c-65 -52 -171 -88 -280 -88z" />
    <glyph glyph-name="Gcommaaccent" unicode="&#x122;" horiz-adv-x="750" 
d="M410 -7c-205 0 -362 133 -362 361c0 208 134 365 356 365c101 0 209 -40 282 -121l-99 -86c-44 44 -105 74 -183 74c-117 0 -209 -87 -209 -232c0 -131 82 -233 215 -233c51 0 98 13 143 41v104h-159v121h296v-306c-65 -52 -171 -88 -280 -88zM321 -220l-27 74
c39 11 55 25 55 55c0 13 -2 22 -7 38h113c4 -14 5 -27 5 -45c0 -78 -59 -117 -139 -122z" />
    <glyph glyph-name="Gdotaccent" unicode="&#x120;" horiz-adv-x="750" 
d="M399 764c-48 0 -83 36 -83 81c0 44 35 80 83 80c47 0 83 -36 83 -80c0 -45 -36 -81 -83 -81zM410 -7c-205 0 -362 133 -362 361c0 208 134 365 356 365c101 0 209 -40 282 -121l-99 -86c-44 44 -105 74 -183 74c-117 0 -209 -87 -209 -232c0 -131 82 -233 215 -233
c51 0 98 13 143 41v104h-159v121h296v-306c-65 -52 -171 -88 -280 -88z" />
    <glyph glyph-name="uni1E20" unicode="&#x1e20;" horiz-adv-x="750" 
d="M245 787v100h305v-100h-305zM410 -7c-205 0 -362 133 -362 361c0 208 134 365 356 365c101 0 209 -40 282 -121l-99 -86c-44 44 -105 74 -183 74c-117 0 -209 -87 -209 -232c0 -131 82 -233 215 -233c51 0 98 13 143 41v104h-159v121h296v-306c-65 -52 -171 -88 -280 -88
z" />
    <glyph glyph-name="H" unicode="H" horiz-adv-x="727" 
d="M77 0v710h142v-307h290v307h141v-710h-141v278h-290v-278h-142z" />
    <glyph glyph-name="Hbar" unicode="&#x126;" horiz-adv-x="736" 
d="M709 606v-93h-54v-513h-141v278h-290v-278h-142v513h-49v93h49v104h142v-104h290v104h141v-104h54zM514 403v110h-290v-110h290z" />
    <glyph glyph-name="uni1E2A" unicode="&#x1e2a;" horiz-adv-x="727" 
d="M77 0v710h142v-307h290v307h141v-710h-141v278h-290v-278h-142zM367 -230c-100 0 -156 62 -163 153h99c2 -30 25 -57 64 -57c38 0 61 27 64 57h99c-7 -96 -68 -153 -163 -153z" />
    <glyph glyph-name="Hcircumflex" unicode="&#x124;" horiz-adv-x="727" 
d="M193 769l104 135h139l104 -135h-121l-52 68h-2l-52 -68h-120zM77 0v710h142v-307h290v307h141v-710h-141v278h-290v-278h-142z" />
    <glyph glyph-name="uni1E24" unicode="&#x1e24;" horiz-adv-x="727" 
d="M77 0v710h142v-307h290v307h141v-710h-141v278h-290v-278h-142zM367 -69c48 0 83 -36 83 -81c0 -44 -35 -80 -83 -80c-47 0 -83 36 -83 80c0 45 36 81 83 81z" />
    <glyph glyph-name="I" unicode="I" horiz-adv-x="306" 
d="M81 0v710h143v-710h-143z" />
    <glyph glyph-name="IJ" unicode="&#x132;" horiz-adv-x="811" 
d="M81 0v710h143v-710h-143zM524 -7c-74 0 -148 31 -195 91l81 100c24 -30 64 -59 106 -59c48 0 85 30 85 121v464h141v-463c0 -158 -60 -254 -218 -254z" />
    <glyph glyph-name="Iacute" unicode="&#xcd;" horiz-adv-x="306" 
d="M87 769l111 135h139l-126 -135h-124zM81 0v710h143v-710h-143z" />
    <glyph glyph-name="Ibreve" unicode="&#x12c;" horiz-adv-x="306" 
d="M152 761c-98 0 -156 54 -163 142h99c2 -29 25 -50 64 -50c38 0 62 22 64 50h99c-7 -84 -61 -142 -163 -142zM81 0v710h143v-710h-143z" />
    <glyph glyph-name="uni01CF" unicode="&#x1cf;" horiz-adv-x="306" 
d="M82 768l-104 135h121l51 -68h2l52 68h121l-104 -135h-139zM81 0v710h143v-710h-143z" />
    <glyph glyph-name="Icircumflex" unicode="&#xce;" horiz-adv-x="306" 
d="M-22 768l104 135h139l104 -135h-121l-52 68h-2l-52 -68h-120zM81 0v710h143v-710h-143z" />
    <glyph glyph-name="Idieresis" unicode="&#xcf;" horiz-adv-x="306" 
d="M46 766c-46 0 -82 36 -82 80c0 43 36 79 82 79c47 0 83 -36 83 -80s-36 -79 -83 -79zM256 766c-47 0 -82 36 -82 80c0 43 35 79 82 79c46 0 83 -36 83 -80s-37 -79 -83 -79zM81 0v710h143v-710h-143z" />
    <glyph glyph-name="Idotaccent" unicode="&#x130;" horiz-adv-x="306" 
d="M153 764c-48 0 -83 36 -83 81c0 44 35 80 83 80c47 0 83 -36 83 -80c0 -45 -36 -81 -83 -81zM81 0v710h143v-710h-143z" />
    <glyph glyph-name="uni1ECA" unicode="&#x1eca;" horiz-adv-x="306" 
d="M81 0v710h143v-710h-143zM154 -69c48 0 83 -36 83 -81c0 -44 -35 -80 -83 -80c-47 0 -83 36 -83 80c0 45 36 81 83 81z" />
    <glyph glyph-name="Igrave" unicode="&#xcc;" horiz-adv-x="306" 
d="M95 769l-126 135h140l111 -135h-125zM81 0v710h143v-710h-143z" />
    <glyph glyph-name="uni1EC8" unicode="&#x1ec8;" horiz-adv-x="306" 
d="M111 768c33 22 64 45 64 67c0 11 -9 20 -29 20c-25 0 -56 -13 -81 -27l-27 61c25 21 77 47 144 47c59 0 99 -26 99 -78c0 -46 -44 -75 -84 -90h-86zM81 0v710h143v-710h-143z" />
    <glyph glyph-name="Imacron" unicode="&#x12a;" horiz-adv-x="306" 
d="M-1 787v100h305v-100h-305zM81 0v710h143v-710h-143z" />
    <glyph glyph-name="Iogonek" unicode="&#x12e;" horiz-adv-x="306" 
d="M200 0c-51 -9 -81 -41 -81 -72c0 -25 15 -41 41 -41c23 0 29 3 39 7l7 -72c-20 -8 -47 -11 -73 -11c-70 0 -114 37 -114 90c0 32 20 71 62 100v709h143v-710h-24z" />
    <glyph glyph-name="Itilde" unicode="&#x128;" horiz-adv-x="306" 
d="M233 768c-32 0 -59 13 -85 28c-22 12 -42 22 -60 22c-22 0 -40 -18 -53 -49l-78 32c21 60 61 108 120 108c41 0 67 -14 89 -28c20 -11 36 -21 56 -21c22 0 38 16 52 49l77 -25c-22 -72 -62 -116 -118 -116zM81 0v710h143v-710h-143z" />
    <glyph glyph-name="J" unicode="J" horiz-adv-x="505" 
d="M218 -7c-74 0 -148 31 -195 91l81 100c24 -30 64 -59 106 -59c48 0 85 30 85 121v464h141v-463c0 -158 -60 -254 -218 -254z" />
    <glyph glyph-name="uni00A40301" horiz-adv-x="505" 
d="M303 769l111 135h139l-126 -135h-124zM218 -7c-74 0 -148 31 -195 91l81 100c24 -30 64 -59 106 -59c48 0 85 30 85 121v464h141v-463c0 -158 -60 -254 -218 -254z" />
    <glyph glyph-name="Jcircumflex" unicode="&#x134;" horiz-adv-x="505" 
d="M192 769l104 135h139l104 -135h-121l-52 68h-2l-52 -68h-120zM218 -7c-74 0 -148 31 -195 91l81 100c24 -30 64 -59 106 -59c48 0 85 30 85 121v464h141v-463c0 -158 -60 -254 -218 -254z" />
    <glyph glyph-name="K" unicode="K" horiz-adv-x="663" 
d="M77 0v710h141v-311h2l243 311h179l-262 -313l271 -397h-174l-190 285l-69 -82v-203h-141z" />
    <glyph glyph-name="Kcommaaccent" unicode="&#x136;" horiz-adv-x="663" 
d="M77 0v710h141v-311h2l243 311h179l-262 -313l271 -397h-174l-190 285l-69 -82v-203h-141zM260 -220l-27 74c39 11 55 25 55 55c0 13 -2 22 -7 38h113c4 -14 5 -27 5 -45c0 -78 -59 -117 -139 -122z" />
    <glyph glyph-name="L" unicode="L" horiz-adv-x="564" 
d="M77 0v710h143v-585h314v-125h-457z" />
    <glyph glyph-name="Lacute" unicode="&#x139;" horiz-adv-x="564" 
d="M184 769l111 135h139l-126 -135h-124zM77 0v710h143v-585h314v-125h-457z" />
    <glyph glyph-name="Lcaron" unicode="&#x13d;" horiz-adv-x="570" 
d="M327 579l31 206h125l-63 -206h-93zM77 0v710h143v-585h314v-125h-457z" />
    <glyph glyph-name="Lcommaaccent" unicode="&#x13b;" horiz-adv-x="564" 
d="M77 0v710h143v-585h314v-125h-457zM224 -220l-27 74c39 11 55 25 55 55c0 13 -2 22 -7 38h113c4 -14 5 -27 5 -45c0 -78 -59 -117 -139 -122z" />
    <glyph glyph-name="Ldot" unicode="&#x13f;" horiz-adv-x="564" 
d="M77 0v710h143v-585h314v-125h-457zM435 259c-46 0 -83 36 -83 81c0 44 37 80 83 80c44 0 81 -36 81 -80c0 -45 -37 -81 -81 -81z" />
    <glyph glyph-name="uni1E36" unicode="&#x1e36;" horiz-adv-x="564" 
d="M77 0v710h143v-585h314v-125h-457zM305 -69c48 0 83 -36 83 -81c0 -44 -35 -80 -83 -80c-47 0 -83 36 -83 80c0 45 36 81 83 81z" />
    <glyph glyph-name="uni1E38" unicode="&#x1e38;" horiz-adv-x="564" 
d="M138 788v100h305v-100h-305zM77 0v710h143v-585h314v-125h-457zM305 -69c48 0 83 -36 83 -81c0 -44 -35 -80 -83 -80c-47 0 -83 36 -83 80c0 45 36 81 83 81z" />
    <glyph glyph-name="uni1E3A" unicode="&#x1e3a;" horiz-adv-x="564" 
d="M77 0v710h143v-585h314v-125h-457zM458 -213h-305v105h305v-105z" />
    <glyph glyph-name="Lslash" unicode="&#x141;" horiz-adv-x="572" 
d="M228 125h314v-125h-457v264l-69 -30v108l69 30v338h143v-276l113 49v-110l-113 -48v-200z" />
    <glyph glyph-name="M" unicode="M" horiz-adv-x="876" 
d="M78 0v710h141l218 -404h2l218 404h141v-710h-140v439h-2l-173 -305h-91l-172 306h-2v-440h-140z" />
    <glyph glyph-name="uni1E42" unicode="&#x1e42;" horiz-adv-x="876" 
d="M78 0v710h141l218 -404h2l218 404h141v-710h-140v439h-2l-173 -305h-91l-172 306h-2v-440h-140zM439 -69c48 0 83 -36 83 -81c0 -44 -35 -80 -83 -80c-47 0 -83 36 -83 80c0 45 36 81 83 81z" />
    <glyph glyph-name="N" unicode="N" horiz-adv-x="753" 
d="M77 0v710h138l319 -479h2v479h139v-710h-141l-315 469h-2v-469h-140z" />
    <glyph glyph-name="Nacute" unicode="&#x143;" horiz-adv-x="753" 
d="M270 769l111 135h139l-126 -135h-124zM77 0v710h138l319 -479h2v479h139v-710h-141l-315 469h-2v-469h-140z" />
    <glyph glyph-name="Ncaron" unicode="&#x147;" horiz-adv-x="753" 
d="M307 769l-104 135h121l51 -68h2l52 68h121l-104 -135h-139zM77 0v710h138l319 -479h2v479h139v-710h-141l-315 469h-2v-469h-140z" />
    <glyph glyph-name="Ncommaaccent" unicode="&#x145;" horiz-adv-x="753" 
d="M77 0v710h138l319 -479h2v479h139v-710h-141l-315 469h-2v-469h-140zM295 -220l-27 74c39 11 55 25 55 55c0 13 -2 22 -7 38h113c4 -14 5 -27 5 -45c0 -78 -59 -117 -139 -122z" />
    <glyph glyph-name="uni1E44" unicode="&#x1e44;" horiz-adv-x="753" 
d="M378 765c-48 0 -83 36 -83 81c0 44 35 80 83 80c47 0 83 -36 83 -80c0 -45 -36 -81 -83 -81zM77 0v710h138l319 -479h2v479h139v-710h-141l-315 469h-2v-469h-140z" />
    <glyph glyph-name="uni1E46" unicode="&#x1e46;" horiz-adv-x="753" 
d="M77 0v710h138l319 -479h2v479h139v-710h-141l-315 469h-2v-469h-140zM376 -69c48 0 83 -36 83 -81c0 -44 -35 -80 -83 -80c-47 0 -83 36 -83 80c0 45 36 81 83 81z" />
    <glyph glyph-name="Eng" unicode="&#x14a;" horiz-adv-x="753" 
d="M536 710h140v-712c0 -159 -95 -204 -200 -204c-34 0 -59 3 -93 13l10 110c17 -6 40 -9 55 -9c65 0 88 40 88 86v5l-317 469h-2v-468h-140v710h136l321 -480h2v480z" />
    <glyph glyph-name="uni019D" unicode="&#x19d;" horiz-adv-x="753" 
d="M536 710h139v-710h-141l-315 469h-2v-469h-1v-8c0 -153 -72 -198 -158 -198c-25 0 -54 3 -89 13l10 110c18 -5 32 -8 45 -8c37 0 53 24 53 65v736h138l319 -479h2v479z" />
    <glyph glyph-name="uni1E48" unicode="&#x1e48;" horiz-adv-x="753" 
d="M77 0v710h138l319 -479h2v479h139v-710h-141l-315 469h-2v-469h-140zM529 -213h-305v105h305v-105z" />
    <glyph glyph-name="Ntilde" unicode="&#xd1;" horiz-adv-x="753" 
d="M458 769c-32 0 -59 13 -85 28c-22 12 -42 22 -60 22c-22 0 -40 -18 -53 -49l-78 32c21 60 61 108 120 108c41 0 67 -14 89 -28c20 -11 36 -21 56 -21c22 0 38 16 52 49l77 -25c-22 -72 -62 -116 -118 -116zM77 0v710h138l319 -479h2v479h139v-710h-141l-315 469h-2v-469
h-140z" />
    <glyph glyph-name="O" unicode="O" horiz-adv-x="819" 
d="M410 -9c-215 0 -362 153 -362 364s147 364 362 364c208 0 361 -147 361 -364c0 -216 -153 -364 -361 -364zM410 123c122 0 214 98 214 232s-92 232 -214 232c-128 0 -216 -103 -216 -232s88 -232 216 -232z" />
    <glyph glyph-name="Oacute" unicode="&#xd3;" horiz-adv-x="819" 
d="M340 769l111 135h139l-126 -135h-124zM410 -9c-215 0 -362 153 -362 364s147 364 362 364c208 0 361 -147 361 -364c0 -216 -153 -364 -361 -364zM410 123c122 0 214 98 214 232s-92 232 -214 232c-128 0 -216 -103 -216 -232s88 -232 216 -232z" />
    <glyph glyph-name="Obreve" unicode="&#x14e;" horiz-adv-x="819" 
d="M411 762c-98 0 -156 54 -163 142h99c2 -29 25 -50 64 -50c38 0 62 22 64 50h99c-7 -84 -61 -142 -163 -142zM410 -9c-215 0 -362 153 -362 364s147 364 362 364c208 0 361 -147 361 -364c0 -216 -153 -364 -361 -364zM410 123c122 0 214 98 214 232s-92 232 -214 232
c-128 0 -216 -103 -216 -232s88 -232 216 -232z" />
    <glyph glyph-name="uni01D1" unicode="&#x1d1;" horiz-adv-x="819" 
d="M341 769l-104 135h121l51 -68h2l52 68h121l-104 -135h-139zM410 -9c-215 0 -362 153 -362 364s147 364 362 364c208 0 361 -147 361 -364c0 -216 -153 -364 -361 -364zM410 123c122 0 214 98 214 232s-92 232 -214 232c-128 0 -216 -103 -216 -232s88 -232 216 -232z" />
    <glyph glyph-name="Ocircumflex" unicode="&#xd4;" horiz-adv-x="819" 
d="M237 769l104 135h139l104 -135h-121l-52 68h-2l-52 -68h-120zM410 -9c-215 0 -362 153 -362 364s147 364 362 364c208 0 361 -147 361 -364c0 -216 -153 -364 -361 -364zM410 123c122 0 214 98 214 232s-92 232 -214 232c-128 0 -216 -103 -216 -232s88 -232 216 -232z
" />
    <glyph glyph-name="uni1ED0" unicode="&#x1ed0;" horiz-adv-x="819" 
d="M568 827l81 139l135 1l-120 -140h-96zM237 769l104 135h139l104 -135h-121l-52 68h-2l-52 -68h-120zM410 -9c-215 0 -362 153 -362 364s147 364 362 364c208 0 361 -147 361 -364c0 -216 -153 -364 -361 -364zM410 123c122 0 214 98 214 232s-92 232 -214 232
c-128 0 -216 -103 -216 -232s88 -232 216 -232z" />
    <glyph glyph-name="uni1ED8" unicode="&#x1ed8;" horiz-adv-x="819" 
d="M237 769l104 135h139l104 -135h-121l-52 68h-2l-52 -68h-120zM410 -9c-215 0 -362 153 -362 364s147 364 362 364c208 0 361 -147 361 -364c0 -216 -153 -364 -361 -364zM410 123c122 0 214 98 214 232s-92 232 -214 232c-128 0 -216 -103 -216 -232s88 -232 216 -232z
M410 -69c48 0 83 -36 83 -81c0 -44 -35 -80 -83 -80c-47 0 -83 36 -83 80c0 45 36 81 83 81z" />
    <glyph glyph-name="uni1ED2" unicode="&#x1ed2;" horiz-adv-x="819" 
d="M614 826l-120 140h135l81 -140h-96zM237 769l104 135h139l104 -135h-121l-52 68h-2l-52 -68h-120zM410 -9c-215 0 -362 153 -362 364s147 364 362 364c208 0 361 -147 361 -364c0 -216 -153 -364 -361 -364zM410 123c122 0 214 98 214 232s-92 232 -214 232
c-128 0 -216 -103 -216 -232s88 -232 216 -232z" />
    <glyph glyph-name="uni1ED4" unicode="&#x1ed4;" horiz-adv-x="819" 
d="M575 839c30 20 58 40 58 60c0 10 -8 18 -26 18c-23 0 -51 -12 -73 -24l-25 55c23 19 70 42 130 42c53 0 89 -23 89 -70c0 -42 -40 -68 -76 -81h-77zM237 769l104 135h139l104 -135h-121l-52 68h-2l-52 -68h-120zM410 -9c-215 0 -362 153 -362 364s147 364 362 364
c208 0 361 -147 361 -364c0 -216 -153 -364 -361 -364zM410 123c122 0 214 98 214 232s-92 232 -214 232c-128 0 -216 -103 -216 -232s88 -232 216 -232z" />
    <glyph glyph-name="uni1ED6" unicode="&#x1ed6;" horiz-adv-x="819" 
d="M486 927c-30 0 -55 12 -80 26c-20 11 -39 20 -56 20c-21 0 -37 -17 -50 -46l-73 30c20 56 57 101 113 101c38 0 63 -13 83 -26c19 -11 34 -20 53 -20c20 0 35 15 48 46l72 -24c-20 -67 -58 -107 -110 -107zM237 769l104 135h139l104 -135h-121l-52 68h-2l-52 -68h-120z
M410 -9c-215 0 -362 153 -362 364s147 364 362 364c208 0 361 -147 361 -364c0 -216 -153 -364 -361 -364zM410 123c122 0 214 98 214 232s-92 232 -214 232c-128 0 -216 -103 -216 -232s88 -232 216 -232z" />
    <glyph glyph-name="Odieresis" unicode="&#xd6;" horiz-adv-x="819" 
d="M305 767c-46 0 -82 36 -82 80c0 43 36 79 82 79c47 0 83 -36 83 -80s-36 -79 -83 -79zM515 767c-47 0 -82 36 -82 80c0 43 35 79 82 79c46 0 83 -36 83 -80s-37 -79 -83 -79zM410 -9c-215 0 -362 153 -362 364s147 364 362 364c208 0 361 -147 361 -364
c0 -216 -153 -364 -361 -364zM410 123c122 0 214 98 214 232s-92 232 -214 232c-128 0 -216 -103 -216 -232s88 -232 216 -232z" />
    <glyph glyph-name="uni1ECC" unicode="&#x1ecc;" horiz-adv-x="819" 
d="M410 -9c-215 0 -362 153 -362 364s147 364 362 364c208 0 361 -147 361 -364c0 -216 -153 -364 -361 -364zM410 123c122 0 214 98 214 232s-92 232 -214 232c-128 0 -216 -103 -216 -232s88 -232 216 -232zM410 -69c48 0 83 -36 83 -81c0 -44 -35 -80 -83 -80
c-47 0 -83 36 -83 80c0 45 36 81 83 81z" />
    <glyph glyph-name="Ograve" unicode="&#xd2;" horiz-adv-x="819" 
d="M363 769l-126 135h140l111 -135h-125zM410 -9c-215 0 -362 153 -362 364s147 364 362 364c208 0 361 -147 361 -364c0 -216 -153 -364 -361 -364zM410 123c122 0 214 98 214 232s-92 232 -214 232c-128 0 -216 -103 -216 -232s88 -232 216 -232z" />
    <glyph glyph-name="uni1ECE" unicode="&#x1ece;" horiz-adv-x="819" 
d="M370 769c33 22 64 45 64 67c0 11 -9 20 -29 20c-25 0 -56 -13 -81 -27l-27 61c25 21 77 47 144 47c59 0 99 -26 99 -78c0 -46 -44 -75 -84 -90h-86zM410 -9c-215 0 -362 153 -362 364s147 364 362 364c208 0 361 -147 361 -364c0 -216 -153 -364 -361 -364zM410 123
c122 0 214 98 214 232s-92 232 -214 232c-128 0 -216 -103 -216 -232s88 -232 216 -232z" />
    <glyph glyph-name="Ohorn" unicode="&#x1a0;" horiz-adv-x="858" 
d="M725 774h122v-73c0 -92 -40 -153 -112 -177c23 -49 36 -106 36 -169c0 -216 -153 -364 -361 -364c-215 0 -362 153 -362 364s147 364 362 364c116 0 215 -46 280 -124c34 19 35 58 35 108v71zM410 123c122 0 214 98 214 232s-92 232 -214 232c-128 0 -216 -103 -216 -232
s88 -232 216 -232z" />
    <glyph glyph-name="uni1EDA" unicode="&#x1eda;" horiz-adv-x="858" 
d="M590 904l-126 -135h-124l111 135h139zM725 774h122v-73c0 -92 -40 -153 -112 -177c23 -49 36 -106 36 -169c0 -216 -153 -364 -361 -364c-215 0 -362 153 -362 364s147 364 362 364c116 0 215 -46 280 -124c34 19 35 58 35 108v71zM410 123c122 0 214 98 214 232
s-92 232 -214 232c-128 0 -216 -103 -216 -232s88 -232 216 -232z" />
    <glyph glyph-name="uni1EE2" unicode="&#x1ee2;" horiz-adv-x="858" 
d="M725 774h122v-73c0 -92 -40 -153 -112 -177c23 -49 36 -106 36 -169c0 -216 -153 -364 -361 -364c-215 0 -362 153 -362 364s147 364 362 364c116 0 215 -46 280 -124c34 19 35 58 35 108v71zM410 123c122 0 214 98 214 232s-92 232 -214 232c-128 0 -216 -103 -216 -232
s88 -232 216 -232zM410 -69c48 0 83 -36 83 -81c0 -44 -35 -80 -83 -80c-47 0 -83 36 -83 80c0 45 36 81 83 81z" />
    <glyph glyph-name="uni1EDC" unicode="&#x1edc;" horiz-adv-x="858" 
d="M488 769h-125l-126 135h140zM725 774h122v-73c0 -92 -40 -153 -112 -177c23 -49 36 -106 36 -169c0 -216 -153 -364 -361 -364c-215 0 -362 153 -362 364s147 364 362 364c116 0 215 -46 280 -124c34 19 35 58 35 108v71zM410 123c122 0 214 98 214 232s-92 232 -214 232
c-128 0 -216 -103 -216 -232s88 -232 216 -232z" />
    <glyph glyph-name="uni1EDE" unicode="&#x1ede;" horiz-adv-x="858" 
d="M405 856c-25 0 -56 -13 -81 -27l-27 61c25 21 77 47 144 47c59 0 99 -26 99 -78c0 -46 -44 -75 -84 -90h-86c33 22 64 45 64 67c0 11 -9 20 -29 20zM725 774h122v-73c0 -92 -40 -153 -112 -177c23 -49 36 -106 36 -169c0 -216 -153 -364 -361 -364
c-215 0 -362 153 -362 364s147 364 362 364c116 0 215 -46 280 -124c34 19 35 58 35 108v71zM410 123c122 0 214 98 214 232s-92 232 -214 232c-128 0 -216 -103 -216 -232s88 -232 216 -232z" />
    <glyph glyph-name="uni1EE0" unicode="&#x1ee0;" horiz-adv-x="858" 
d="M347 819c-22 0 -40 -18 -53 -49l-78 32c21 60 61 108 120 108c41 0 67 -14 89 -28c20 -11 36 -21 56 -21c22 0 38 16 52 49l77 -25c-22 -72 -62 -116 -118 -116c-32 0 -59 13 -85 28c-22 12 -42 22 -60 22zM725 774h122v-73c0 -92 -40 -153 -112 -177
c23 -49 36 -106 36 -169c0 -216 -153 -364 -361 -364c-215 0 -362 153 -362 364s147 364 362 364c116 0 215 -46 280 -124c34 19 35 58 35 108v71zM410 123c122 0 214 98 214 232s-92 232 -214 232c-128 0 -216 -103 -216 -232s88 -232 216 -232z" />
    <glyph glyph-name="Ohungarumlaut" unicode="&#x150;" horiz-adv-x="819" 
d="M249 769l113 146l132 1l-124 -147h-121zM454 769l112 146l131 1l-123 -147h-120zM410 -9c-215 0 -362 153 -362 364s147 364 362 364c208 0 361 -147 361 -364c0 -216 -153 -364 -361 -364zM410 123c122 0 214 98 214 232s-92 232 -214 232c-128 0 -216 -103 -216 -232
s88 -232 216 -232z" />
    <glyph glyph-name="Omacron" unicode="&#x14c;" horiz-adv-x="819" 
d="M258 788v100h305v-100h-305zM410 -9c-215 0 -362 153 -362 364s147 364 362 364c208 0 361 -147 361 -364c0 -216 -153 -364 -361 -364zM410 123c122 0 214 98 214 232s-92 232 -214 232c-128 0 -216 -103 -216 -232s88 -232 216 -232z" />
    <glyph glyph-name="uni01EA" unicode="&#x1ea;" horiz-adv-x="819" 
d="M465 -5c-38 -13 -60 -41 -60 -67c0 -25 15 -41 41 -41c23 0 29 3 39 7l7 -72c-20 -8 -47 -11 -73 -11c-70 0 -114 37 -114 90c0 29 17 65 52 92v1c-186 23 -309 168 -309 361c0 211 147 364 362 364c208 0 361 -147 361 -364c0 -197 -127 -337 -306 -360zM194 355
c0 -129 88 -232 216 -232c122 0 214 98 214 232s-92 232 -214 232c-128 0 -216 -103 -216 -232z" />
    <glyph glyph-name="Oslash" unicode="&#xd8;" horiz-adv-x="819" 
d="M778 677l-82 -90c47 -61 75 -140 75 -232c0 -216 -153 -364 -361 -364c-80 0 -150 21 -207 58l-78 -85l-69 64l77 83c-54 63 -85 148 -85 244c0 211 147 364 362 364c84 0 160 -24 220 -67l80 87zM194 355c0 -51 14 -98 38 -136l302 328c-35 26 -77 40 -124 40
c-128 0 -216 -103 -216 -232zM624 355c0 46 -11 87 -29 122l-296 -323c31 -20 69 -31 111 -31c122 0 214 98 214 232z" />
    <glyph glyph-name="Oslashacute" unicode="&#x1fe;" horiz-adv-x="819" 
d="M591 903l-126 -135h-124l111 135h139zM778 677l-82 -90c47 -61 75 -140 75 -232c0 -216 -153 -364 -361 -364c-80 0 -150 21 -207 58l-78 -85l-69 64l77 83c-54 63 -85 148 -85 244c0 211 147 364 362 364c84 0 160 -24 220 -67l80 87zM194 355c0 -51 14 -98 38 -136
l302 328c-35 26 -77 40 -124 40c-128 0 -216 -103 -216 -232zM624 355c0 46 -11 87 -29 122l-296 -323c31 -20 69 -31 111 -31c122 0 214 98 214 232z" />
    <glyph glyph-name="Otilde" unicode="&#xd5;" horiz-adv-x="819" 
d="M492 769c-32 0 -59 13 -85 28c-22 12 -42 22 -60 22c-22 0 -40 -18 -53 -49l-78 32c21 60 61 108 120 108c41 0 67 -14 89 -28c20 -11 36 -21 56 -21c22 0 38 16 52 49l77 -25c-22 -72 -62 -116 -118 -116zM410 -9c-215 0 -362 153 -362 364s147 364 362 364
c208 0 361 -147 361 -364c0 -216 -153 -364 -361 -364zM410 123c122 0 214 98 214 232s-92 232 -214 232c-128 0 -216 -103 -216 -232s88 -232 216 -232z" />
    <glyph glyph-name="OE" unicode="&#x152;" horiz-adv-x="959" 
d="M577 125h336v-125h-503c-215 0 -362 153 -362 355c0 203 147 356 362 355h483v-125h-316v-172h257v-122h-257v-166zM410 131h33v448h-33c-123 1 -216 -96 -216 -224c0 -126 93 -226 216 -224z" />
    <glyph glyph-name="P" unicode="P" horiz-adv-x="622" 
d="M77 0v710h263c172 0 247 -100 247 -236c0 -156 -105 -231 -261 -231h-110v-243h-139zM216 367h95c88 0 130 44 130 109c0 66 -42 109 -123 109h-102v-218z" />
    <glyph glyph-name="Thorn" unicode="&#xde;" horiz-adv-x="644" 
d="M77 0v710h139v-126h145c172 0 246 -100 246 -236c0 -153 -104 -228 -260 -228h-131v-120h-139zM216 244h116c88 0 129 44 129 107c0 66 -40 109 -123 109h-122v-216z" />
    <glyph glyph-name="Q" unicode="Q" horiz-adv-x="835" 
d="M791 73l-75 -95l-88 80c-59 -43 -134 -67 -218 -67c-215 0 -362 153 -362 364s147 364 362 364c208 0 361 -147 361 -364c0 -81 -22 -153 -60 -211zM194 355c0 -136 93 -233 216 -233c45 0 85 13 118 35l-67 61l68 82l69 -62c17 35 26 74 26 117c0 129 -86 232 -214 232
c-123 0 -216 -98 -216 -232z" />
    <glyph glyph-name="R" unicode="R" horiz-adv-x="655" 
d="M77 0v710h269c171 0 247 -100 247 -236c0 -108 -50 -182 -148 -214l178 -260h-167l-159 243h-81v-243h-139zM216 367h102c86 0 130 44 130 109c0 66 -43 109 -124 109h-108v-218z" />
    <glyph glyph-name="Racute" unicode="&#x154;" horiz-adv-x="655" 
d="M215 769l111 135h139l-126 -135h-124zM77 0v710h269c171 0 247 -100 247 -236c0 -108 -50 -182 -148 -214l178 -260h-167l-159 243h-81v-243h-139zM216 367h102c86 0 130 44 130 109c0 66 -43 109 -124 109h-108v-218z" />
    <glyph glyph-name="Rcaron" unicode="&#x158;" horiz-adv-x="655" 
d="M252 769l-104 135h121l51 -68h2l52 68h121l-104 -135h-139zM77 0v710h269c171 0 247 -100 247 -236c0 -108 -50 -182 -148 -214l178 -260h-167l-159 243h-81v-243h-139zM216 367h102c86 0 130 44 130 109c0 66 -43 109 -124 109h-108v-218z" />
    <glyph glyph-name="Rcommaaccent" unicode="&#x156;" horiz-adv-x="655" 
d="M77 0v710h269c171 0 247 -100 247 -236c0 -108 -50 -182 -148 -214l178 -260h-167l-159 243h-81v-243h-139zM216 367h102c86 0 130 44 130 109c0 66 -43 109 -124 109h-108v-218zM247 -220l-27 74c39 11 55 25 55 55c0 13 -2 22 -7 38h113c4 -14 5 -27 5 -45
c0 -78 -59 -117 -139 -122z" />
    <glyph glyph-name="uni1E5A" unicode="&#x1e5a;" horiz-adv-x="655" 
d="M77 0v710h269c171 0 247 -100 247 -236c0 -108 -50 -182 -148 -214l178 -260h-167l-159 243h-81v-243h-139zM216 367h102c86 0 130 44 130 109c0 66 -43 109 -124 109h-108v-218zM328 -69c48 0 83 -36 83 -81c0 -44 -35 -80 -83 -80c-47 0 -83 36 -83 80
c0 45 36 81 83 81z" />
    <glyph glyph-name="uni1E5C" unicode="&#x1e5c;" horiz-adv-x="655" 
d="M169 788v100h305v-100h-305zM77 0v710h269c171 0 247 -100 247 -236c0 -108 -50 -182 -148 -214l178 -260h-167l-159 243h-81v-243h-139zM216 367h102c86 0 130 44 130 109c0 66 -43 109 -124 109h-108v-218zM328 -69c48 0 83 -36 83 -81c0 -44 -35 -80 -83 -80
c-47 0 -83 36 -83 80c0 45 36 81 83 81z" />
    <glyph glyph-name="uni1E5E" unicode="&#x1e5e;" horiz-adv-x="655" 
d="M77 0v710h269c171 0 247 -100 247 -236c0 -108 -50 -182 -148 -214l178 -260h-167l-159 243h-81v-243h-139zM216 367h102c86 0 130 44 130 109c0 66 -43 109 -124 109h-108v-218zM481 -213h-305v105h305v-105z" />
    <glyph glyph-name="S" unicode="S" horiz-adv-x="582" 
d="M291 -9c-91 0 -184 36 -259 113l85 104c53 -60 121 -89 177 -89c68 0 101 31 101 75c0 52 -37 71 -123 101c-108 37 -215 86 -215 221c0 114 101 202 228 203c88 0 169 -32 240 -90l-82 -106c-59 48 -111 70 -155 70c-49 0 -85 -26 -86 -71c0 -44 38 -62 120 -94
c123 -48 221 -80 221 -217c0 -156 -137 -220 -252 -220z" />
    <glyph glyph-name="Sacute" unicode="&#x15a;" horiz-adv-x="582" 
d="M212 769l111 135h139l-126 -135h-124zM291 -9c-91 0 -184 36 -259 113l85 104c53 -60 121 -89 177 -89c68 0 101 31 101 75c0 52 -37 71 -123 101c-108 37 -215 86 -215 221c0 114 101 202 228 203c88 0 169 -32 240 -90l-82 -106c-59 48 -111 70 -155 70
c-49 0 -85 -26 -86 -71c0 -44 38 -62 120 -94c123 -48 221 -80 221 -217c0 -156 -137 -220 -252 -220z" />
    <glyph glyph-name="Scaron" unicode="&#x160;" horiz-adv-x="582" 
d="M220 769l-104 135h121l51 -68h2l52 68h121l-104 -135h-139zM291 -9c-91 0 -184 36 -259 113l85 104c53 -60 121 -89 177 -89c68 0 101 31 101 75c0 52 -37 71 -123 101c-108 37 -215 86 -215 221c0 114 101 202 228 203c88 0 169 -32 240 -90l-82 -106
c-59 48 -111 70 -155 70c-49 0 -85 -26 -86 -71c0 -44 38 -62 120 -94c123 -48 221 -80 221 -217c0 -156 -137 -220 -252 -220z" />
    <glyph glyph-name="Scedilla" unicode="&#x15e;" horiz-adv-x="582" 
d="M305 -9l-10 -20v-2c65 -2 98 -31 98 -81c0 -45 -39 -79 -128 -79c-29 0 -46 3 -61 6v59c12 -4 27 -7 48 -7c22 0 48 7 48 28c0 18 -29 32 -79 32v37l15 31c-73 12 -144 48 -204 109l85 104c53 -60 121 -89 177 -89c68 0 101 31 101 75c0 52 -37 71 -123 101
c-108 37 -215 86 -215 221c0 114 101 202 228 203c88 0 169 -32 240 -90l-82 -106c-59 48 -111 70 -155 70c-49 0 -85 -26 -86 -71c0 -44 38 -62 120 -94c123 -48 221 -80 221 -217c0 -150 -126 -215 -238 -220z" />
    <glyph glyph-name="Scircumflex" unicode="&#x15c;" horiz-adv-x="582" 
d="M116 769l104 135h139l104 -135h-121l-52 68h-2l-52 -68h-120zM291 -9c-91 0 -184 36 -259 113l85 104c53 -60 121 -89 177 -89c68 0 101 31 101 75c0 52 -37 71 -123 101c-108 37 -215 86 -215 221c0 114 101 202 228 203c88 0 169 -32 240 -90l-82 -106
c-59 48 -111 70 -155 70c-49 0 -85 -26 -86 -71c0 -44 38 -62 120 -94c123 -48 221 -80 221 -217c0 -156 -137 -220 -252 -220z" />
    <glyph glyph-name="Scommaaccent" unicode="&#x218;" horiz-adv-x="582" 
d="M291 -9c-91 0 -184 36 -259 113l85 104c53 -60 121 -89 177 -89c68 0 101 31 101 75c0 52 -37 71 -123 101c-108 37 -215 86 -215 221c0 114 101 202 228 203c88 0 169 -32 240 -90l-82 -106c-59 48 -111 70 -155 70c-49 0 -85 -26 -86 -71c0 -44 38 -62 120 -94
c123 -48 221 -80 221 -217c0 -156 -137 -220 -252 -220zM218 -220l-27 74c39 11 55 25 55 55c0 13 -2 22 -7 38h113c4 -14 5 -27 5 -45c0 -78 -59 -117 -139 -122z" />
    <glyph glyph-name="uni1E60" unicode="&#x1e60;" horiz-adv-x="582" 
d="M291 765c-48 0 -83 36 -83 81c0 44 35 80 83 80c47 0 83 -36 83 -80c0 -45 -36 -81 -83 -81zM291 -9c-91 0 -184 36 -259 113l85 104c53 -60 121 -89 177 -89c68 0 101 31 101 75c0 52 -37 71 -123 101c-108 37 -215 86 -215 221c0 114 101 202 228 203
c88 0 169 -32 240 -90l-82 -106c-59 48 -111 70 -155 70c-49 0 -85 -26 -86 -71c0 -44 38 -62 120 -94c123 -48 221 -80 221 -217c0 -156 -137 -220 -252 -220z" />
    <glyph glyph-name="uni1E62" unicode="&#x1e62;" horiz-adv-x="582" 
d="M291 -9c-91 0 -184 36 -259 113l85 104c53 -60 121 -89 177 -89c68 0 101 31 101 75c0 52 -37 71 -123 101c-108 37 -215 86 -215 221c0 114 101 202 228 203c88 0 169 -32 240 -90l-82 -106c-59 48 -111 70 -155 70c-49 0 -85 -26 -86 -71c0 -44 38 -62 120 -94
c123 -48 221 -80 221 -217c0 -156 -137 -220 -252 -220zM299 -69c48 0 83 -36 83 -81c0 -44 -35 -80 -83 -80c-47 0 -83 36 -83 80c0 45 36 81 83 81z" />
    <glyph glyph-name="uni1E9E" unicode="&#x1e9e;" horiz-adv-x="769" 
d="M535 425c118 -47 211 -80 211 -214c0 -156 -136 -220 -239 -220c-70 0 -150 27 -219 84l65 121c51 -53 113 -77 156 -77c58 0 90 31 90 75c0 53 -37 73 -124 101c-38 13 -77 30 -119 53l121 232l-2 4c-50 6 -97 10 -128 10c-92 0 -145 -34 -145 -129l-1 -465h-139l1 471
c0 181 107 248 271 248c85 0 218 -20 332 -48z" />
    <glyph glyph-name="uni018F" unicode="&#x18f;" horiz-adv-x="774" 
d="M367 719c238 0 360 -161 360 -362c0 -234 -150 -366 -349 -366c-213 0 -339 136 -339 336c0 27 2 47 4 67h537c-13 121 -91 193 -223 193c-68 1 -135 -18 -196 -57l-78 106c71 52 173 84 284 83zM375 122c92 0 171 46 198 150h-389c11 -96 86 -150 191 -150z" />
    <glyph glyph-name="T" unicode="T" horiz-adv-x="588" 
d="M222 0v585h-194v125h533v-125h-197v-585h-142z" />
    <glyph glyph-name="Tbar" unicode="&#x166;" horiz-adv-x="588" 
d="M561 585h-197v-203h120v-104h-120v-278h-142v278h-112v104h112v203h-194v125h533v-125z" />
    <glyph glyph-name="Tcaron" unicode="&#x164;" horiz-adv-x="588" 
d="M223 769l-104 135h121l51 -68h2l52 68h121l-104 -135h-139zM222 0v585h-194v125h533v-125h-197v-585h-142z" />
    <glyph glyph-name="Tdieresis" horiz-adv-x="588" 
d="M187 785c-46 0 -82 36 -82 80c0 43 36 79 82 79c47 0 83 -36 83 -80s-36 -79 -83 -79zM397 785c-47 0 -82 36 -82 80c0 43 35 79 82 79c46 0 83 -36 83 -80s-37 -79 -83 -79zM222 0v585h-194v125h533v-125h-197v-585h-142z" />
    <glyph glyph-name="uni1E6C" unicode="&#x1e6c;" horiz-adv-x="588" 
d="M222 0v585h-194v125h533v-125h-197v-585h-142zM291 -69c48 0 83 -36 83 -81c0 -44 -35 -80 -83 -80c-47 0 -83 36 -83 80c0 45 36 81 83 81z" />
    <glyph glyph-name="uni1E6E" unicode="&#x1e6e;" horiz-adv-x="588" 
d="M222 0v585h-194v125h533v-125h-197v-585h-142zM444 -213h-305v105h305v-105z" />
    <glyph glyph-name="U" unicode="U" horiz-adv-x="711" 
d="M355 -9c-171 0 -287 109 -287 303v416h141v-407c0 -102 52 -180 146 -180c86 0 148 67 148 180v407h141v-416c0 -185 -107 -303 -289 -303z" />
    <glyph glyph-name="Uacute" unicode="&#xda;" horiz-adv-x="711" 
d="M276 769l111 135h139l-126 -135h-124zM355 -9c-171 0 -287 109 -287 303v416h141v-407c0 -102 52 -180 146 -180c86 0 148 67 148 180v407h141v-416c0 -185 -107 -303 -289 -303z" />
    <glyph glyph-name="Ubreve" unicode="&#x16c;" horiz-adv-x="711" 
d="M355 762c-98 0 -156 54 -163 142h99c2 -29 25 -50 64 -50c38 0 62 22 64 50h99c-7 -84 -61 -142 -163 -142zM355 -9c-171 0 -287 109 -287 303v416h141v-407c0 -102 52 -180 146 -180c86 0 148 67 148 180v407h141v-416c0 -185 -107 -303 -289 -303z" />
    <glyph glyph-name="Ucircumflex" unicode="&#xdb;" horiz-adv-x="711" 
d="M181 769l104 135h139l104 -135h-121l-52 68h-2l-52 -68h-120zM355 -9c-171 0 -287 109 -287 303v416h141v-407c0 -102 52 -180 146 -180c86 0 148 67 148 180v407h141v-416c0 -185 -107 -303 -289 -303z" />
    <glyph glyph-name="Udieresis" unicode="&#xdc;" horiz-adv-x="711" 
d="M249 767c-46 0 -82 36 -82 80c0 43 36 79 82 79c47 0 83 -36 83 -80s-36 -79 -83 -79zM459 767c-47 0 -82 36 -82 80c0 43 35 79 82 79c46 0 83 -36 83 -80s-37 -79 -83 -79zM355 -9c-171 0 -287 109 -287 303v416h141v-407c0 -102 52 -180 146 -180c86 0 148 67 148 180
v407h141v-416c0 -185 -107 -303 -289 -303z" />
    <glyph glyph-name="uni1EE4" unicode="&#x1ee4;" horiz-adv-x="711" 
d="M355 -9c-171 0 -287 109 -287 303v416h141v-407c0 -102 52 -180 146 -180c86 0 148 67 148 180v407h141v-416c0 -185 -107 -303 -289 -303zM355 -69c48 0 83 -36 83 -81c0 -44 -35 -80 -83 -80c-47 0 -83 36 -83 80c0 45 36 81 83 81z" />
    <glyph glyph-name="Ugrave" unicode="&#xd9;" horiz-adv-x="711" 
d="M305 769l-126 135h140l111 -135h-125zM355 -9c-171 0 -287 109 -287 303v416h141v-407c0 -102 52 -180 146 -180c86 0 148 67 148 180v407h141v-416c0 -185 -107 -303 -289 -303z" />
    <glyph glyph-name="uni1EE6" unicode="&#x1ee6;" horiz-adv-x="711" 
d="M314 769c33 22 64 45 64 67c0 11 -9 20 -29 20c-25 0 -56 -13 -81 -27l-27 61c25 21 77 47 144 47c59 0 99 -26 99 -78c0 -46 -44 -75 -84 -90h-86zM355 -9c-171 0 -287 109 -287 303v416h141v-407c0 -102 52 -180 146 -180c86 0 148 67 148 180v407h141v-416
c0 -185 -107 -303 -289 -303z" />
    <glyph glyph-name="Uhorn" unicode="&#x1af;" horiz-adv-x="822" 
d="M705 774h122v-73c0 -119 -67 -186 -183 -187v-220c0 -185 -107 -303 -289 -303c-171 0 -287 109 -287 303v416h141v-407c0 -102 52 -180 146 -180c86 0 148 67 148 180v407h141v-124c59 12 61 57 61 117v71z" />
    <glyph glyph-name="uni1EE8" unicode="&#x1ee8;" horiz-adv-x="822" 
d="M526 904l-126 -135h-124l111 135h139zM705 774h122v-73c0 -119 -67 -186 -183 -187v-220c0 -185 -107 -303 -289 -303c-171 0 -287 109 -287 303v416h141v-407c0 -102 52 -180 146 -180c86 0 148 67 148 180v407h141v-124c59 12 61 57 61 117v71z" />
    <glyph glyph-name="uni1EF0" unicode="&#x1ef0;" horiz-adv-x="822" 
d="M705 774h122v-73c0 -119 -67 -186 -183 -187v-220c0 -185 -107 -303 -289 -303c-171 0 -287 109 -287 303v416h141v-407c0 -102 52 -180 146 -180c86 0 148 67 148 180v407h141v-124c59 12 61 57 61 117v71zM355 -69c48 0 83 -36 83 -81c0 -44 -35 -80 -83 -80
c-47 0 -83 36 -83 80c0 45 36 81 83 81z" />
    <glyph glyph-name="uni1EEA" unicode="&#x1eea;" horiz-adv-x="822" 
d="M430 769h-125l-126 135h140zM705 774h122v-73c0 -119 -67 -186 -183 -187v-220c0 -185 -107 -303 -289 -303c-171 0 -287 109 -287 303v416h141v-407c0 -102 52 -180 146 -180c86 0 148 67 148 180v407h141v-124c59 12 61 57 61 117v71z" />
    <glyph glyph-name="uni1EEC" unicode="&#x1eec;" horiz-adv-x="822" 
d="M349 856c-25 0 -56 -13 -81 -27l-27 61c25 21 77 47 144 47c59 0 99 -26 99 -78c0 -46 -44 -75 -84 -90h-86c33 22 64 45 64 67c0 11 -9 20 -29 20zM705 774h122v-73c0 -119 -67 -186 -183 -187v-220c0 -185 -107 -303 -289 -303c-171 0 -287 109 -287 303v416h141v-407
c0 -102 52 -180 146 -180c86 0 148 67 148 180v407h141v-124c59 12 61 57 61 117v71z" />
    <glyph glyph-name="uni1EEE" unicode="&#x1eee;" horiz-adv-x="822" 
d="M291 819c-22 0 -40 -18 -53 -49l-78 32c21 60 61 108 120 108c41 0 67 -14 89 -28c20 -11 36 -21 56 -21c22 0 38 16 52 49l77 -25c-22 -72 -62 -116 -118 -116c-32 0 -59 13 -85 28c-22 12 -42 22 -60 22zM705 774h122v-73c0 -119 -67 -186 -183 -187v-220
c0 -185 -107 -303 -289 -303c-171 0 -287 109 -287 303v416h141v-407c0 -102 52 -180 146 -180c86 0 148 67 148 180v407h141v-124c59 12 61 57 61 117v71z" />
    <glyph glyph-name="Uhungarumlaut" unicode="&#x170;" horiz-adv-x="711" 
d="M193 769l113 146l132 1l-124 -147h-121zM398 769l112 146l131 1l-123 -147h-120zM355 -9c-171 0 -287 109 -287 303v416h141v-407c0 -102 52 -180 146 -180c86 0 148 67 148 180v407h141v-416c0 -185 -107 -303 -289 -303z" />
    <glyph glyph-name="Umacron" unicode="&#x16a;" horiz-adv-x="711" 
d="M202 788v100h305v-100h-305zM355 -9c-171 0 -287 109 -287 303v416h141v-407c0 -102 52 -180 146 -180c86 0 148 67 148 180v407h141v-416c0 -185 -107 -303 -289 -303z" />
    <glyph glyph-name="Uogonek" unicode="&#x172;" horiz-adv-x="711" 
d="M503 710h141v-416c0 -151 -71 -257 -196 -291c-50 -17 -79 -44 -79 -73c0 -24 15 -39 41 -39c22 0 29 2 39 6l6 -71c-19 -9 -46 -13 -72 -13c-70 0 -113 38 -113 92c0 27 15 60 46 87v1c-150 16 -248 122 -248 301v416h141v-407c0 -102 52 -180 146 -180
c86 0 148 67 148 180v407z" />
    <glyph glyph-name="Uring" unicode="&#x16e;" horiz-adv-x="711" 
d="M355 746c-59 0 -109 44 -109 105c0 58 45 106 109 106c60 0 109 -45 109 -106c0 -57 -44 -105 -109 -105zM355 815c21 0 37 17 37 38c0 20 -16 36 -37 36s-37 -17 -37 -37c0 -21 16 -37 37 -37zM355 -9c-171 0 -287 109 -287 303v416h141v-407c0 -102 52 -180 146 -180
c86 0 148 67 148 180v407h141v-416c0 -185 -107 -303 -289 -303z" />
    <glyph glyph-name="Utilde" unicode="&#x168;" horiz-adv-x="711" 
d="M436 769c-32 0 -59 13 -85 28c-22 12 -42 22 -60 22c-22 0 -40 -18 -53 -49l-78 32c21 60 61 108 120 108c41 0 67 -14 89 -28c20 -11 36 -21 56 -21c22 0 38 16 52 49l77 -25c-22 -72 -62 -116 -118 -116zM355 -9c-171 0 -287 109 -287 303v416h141v-407
c0 -102 52 -180 146 -180c86 0 148 67 148 180v407h141v-416c0 -185 -107 -303 -289 -303z" />
    <glyph glyph-name="V" unicode="V" horiz-adv-x="690" 
d="M285 0l-264 710h152l174 -508h2l173 508h150l-263 -710h-124z" />
    <glyph glyph-name="W" unicode="W" horiz-adv-x="1031" 
d="M249 0l-224 710h150l138 -479h2l127 479h148l125 -478h3l138 478h150l-224 -710h-130l-134 505h-2l-137 -505h-130z" />
    <glyph glyph-name="Wacute" unicode="&#x1e82;" horiz-adv-x="1031" 
d="M456 769l111 135h139l-126 -135h-124zM249 0l-224 710h150l138 -479h2l127 479h148l125 -478h3l138 478h150l-224 -710h-130l-134 505h-2l-137 -505h-130z" />
    <glyph glyph-name="Wcircumflex" unicode="&#x174;" horiz-adv-x="1031" 
d="M343 769l104 135h139l104 -135h-121l-52 68h-2l-52 -68h-120zM249 0l-224 710h150l138 -479h2l127 479h148l125 -478h3l138 478h150l-224 -710h-130l-134 505h-2l-137 -505h-130z" />
    <glyph glyph-name="Wdieresis" unicode="&#x1e84;" horiz-adv-x="1031" 
d="M411 767c-46 0 -82 36 -82 80c0 43 36 79 82 79c47 0 83 -36 83 -80s-36 -79 -83 -79zM621 767c-47 0 -82 36 -82 80c0 43 35 79 82 79c46 0 83 -36 83 -80s-37 -79 -83 -79zM249 0l-224 710h150l138 -479h2l127 479h148l125 -478h3l138 478h150l-224 -710h-130l-134 505
h-2l-137 -505h-130z" />
    <glyph glyph-name="Wgrave" unicode="&#x1e80;" horiz-adv-x="1031" 
d="M459 769l-126 135h140l111 -135h-125zM249 0l-224 710h150l138 -479h2l127 479h148l125 -478h3l138 478h150l-224 -710h-130l-134 505h-2l-137 -505h-130z" />
    <glyph glyph-name="X" unicode="X" horiz-adv-x="699" 
d="M25 0l231 356l-225 354h164l155 -246h2l156 246h160l-225 -353l232 -357h-165l-160 248h-3l-160 -248h-162z" />
    <glyph glyph-name="Y" unicode="Y" horiz-adv-x="630" 
d="M243 0v312l-235 398h161l145 -258h2l142 258h163l-236 -398v-312h-142z" />
    <glyph glyph-name="Yacute" unicode="&#xdd;" horiz-adv-x="630" 
d="M240 769l111 135h139l-126 -135h-124zM243 0v312l-235 398h161l145 -258h2l142 258h163l-236 -398v-312h-142z" />
    <glyph glyph-name="Ycircumflex" unicode="&#x176;" horiz-adv-x="630" 
d="M142 769l104 135h139l104 -135h-121l-52 68h-2l-52 -68h-120zM243 0v312l-235 398h161l145 -258h2l142 258h163l-236 -398v-312h-142z" />
    <glyph glyph-name="Ydieresis" unicode="&#x178;" horiz-adv-x="630" 
d="M210 767c-46 0 -82 36 -82 80c0 43 36 79 82 79c47 0 83 -36 83 -80s-36 -79 -83 -79zM420 767c-47 0 -82 36 -82 80c0 43 35 79 82 79c46 0 83 -36 83 -80s-37 -79 -83 -79zM243 0v312l-235 398h161l145 -258h2l142 258h163l-236 -398v-312h-142z" />
    <glyph glyph-name="uni1E8E" unicode="&#x1e8e;" horiz-adv-x="630" 
d="M317 765c-48 0 -83 36 -83 81c0 44 35 80 83 80c47 0 83 -36 83 -80c0 -45 -36 -81 -83 -81zM243 0v312l-235 398h161l145 -258h2l142 258h163l-236 -398v-312h-142z" />
    <glyph glyph-name="uni1EF4" unicode="&#x1ef4;" horiz-adv-x="630" 
d="M243 0v312l-235 398h161l145 -258h2l142 258h163l-236 -398v-312h-142zM314 -69c48 0 83 -36 83 -81c0 -44 -35 -80 -83 -80c-47 0 -83 36 -83 80c0 45 36 81 83 81z" />
    <glyph glyph-name="Ygrave" unicode="&#x1ef2;" horiz-adv-x="630" 
d="M277 769l-126 135h140l111 -135h-125zM243 0v312l-235 398h161l145 -258h2l142 258h163l-236 -398v-312h-142z" />
    <glyph glyph-name="uni1EF6" unicode="&#x1ef6;" horiz-adv-x="630" 
d="M275 769c33 22 64 45 64 67c0 11 -9 20 -29 20c-25 0 -56 -13 -81 -27l-27 61c25 21 77 47 144 47c59 0 99 -26 99 -78c0 -46 -44 -75 -84 -90h-86zM243 0v312l-235 398h161l145 -258h2l142 258h163l-236 -398v-312h-142z" />
    <glyph glyph-name="uni0232" unicode="&#x232;" horiz-adv-x="630" 
d="M163 788v100h305v-100h-305zM243 0v312l-235 398h161l145 -258h2l142 258h163l-236 -398v-312h-142z" />
    <glyph glyph-name="uni1EF8" unicode="&#x1ef8;" horiz-adv-x="630" 
d="M397 769c-32 0 -59 13 -85 28c-22 12 -42 22 -60 22c-22 0 -40 -18 -53 -49l-78 32c21 60 61 108 120 108c41 0 67 -14 89 -28c20 -11 36 -21 56 -21c22 0 38 16 52 49l77 -25c-22 -72 -62 -116 -118 -116zM243 0v312l-235 398h161l145 -258h2l142 258h163l-236 -398
v-312h-142z" />
    <glyph glyph-name="Z" unicode="Z" horiz-adv-x="621" 
d="M50 0v110l331 472l-1 3h-316v125h504v-107l-339 -475l2 -3h338v-125h-519z" />
    <glyph glyph-name="Zacute" unicode="&#x179;" horiz-adv-x="621" 
d="M202 769l111 135h139l-126 -135h-124zM50 0v110l331 472l-1 3h-316v125h504v-107l-339 -475l2 -3h338v-125h-519z" />
    <glyph glyph-name="Zcaron" unicode="&#x17d;" horiz-adv-x="621" 
d="M239 769l-104 135h121l51 -68h2l52 68h121l-104 -135h-139zM50 0v110l331 472l-1 3h-316v125h504v-107l-339 -475l2 -3h338v-125h-519z" />
    <glyph glyph-name="Zdotaccent" unicode="&#x17b;" horiz-adv-x="621" 
d="M310 765c-48 0 -83 36 -83 81c0 44 35 80 83 80c47 0 83 -36 83 -80c0 -45 -36 -81 -83 -81zM50 0v110l331 472l-1 3h-316v125h504v-107l-339 -475l2 -3h338v-125h-519z" />
    <glyph glyph-name="uni1E92" unicode="&#x1e92;" horiz-adv-x="621" 
d="M50 0v110l331 472l-1 3h-316v125h504v-107l-339 -475l2 -3h338v-125h-519zM309 -69c48 0 83 -36 83 -81c0 -44 -35 -80 -83 -80c-47 0 -83 36 -83 80c0 45 36 81 83 81z" />
    <glyph glyph-name="uni01D3" unicode="&#x1d3;" horiz-adv-x="711" 
d="M285 769l-104 135h121l51 -68h2l52 68h121l-104 -135h-139zM355 -9c-171 0 -287 109 -287 303v416h141v-407c0 -102 52 -180 146 -180c86 0 148 67 148 180v407h141v-416c0 -185 -107 -303 -289 -303z" />
    <glyph glyph-name="uni01D5" unicode="&#x1d5;" horiz-adv-x="711" 
d="M203 934v77h305v-77h-305zM260 761c-42 0 -72 30 -72 68c0 37 30 68 72 68c41 0 72 -31 72 -68c0 -38 -31 -68 -72 -68zM453 761c-42 0 -72 30 -72 68c0 37 30 68 72 68c41 0 72 -31 72 -68c0 -38 -31 -68 -72 -68zM355 -9c-171 0 -287 109 -287 303v416h141v-407
c0 -102 52 -180 146 -180c86 0 148 67 148 180v407h141v-416c0 -185 -107 -303 -289 -303z" />
    <glyph glyph-name="uni01D7" unicode="&#x1d7;" horiz-adv-x="711" 
d="M311 908l86 128h137l-130 -128h-93zM260 761c-42 0 -72 30 -72 68c0 37 30 68 72 68c41 0 72 -31 72 -68c0 -38 -31 -68 -72 -68zM453 761c-42 0 -72 30 -72 68c0 37 30 68 72 68c41 0 72 -31 72 -68c0 -38 -31 -68 -72 -68zM355 -9c-171 0 -287 109 -287 303v416h141
v-407c0 -102 52 -180 146 -180c86 0 148 67 148 180v407h141v-416c0 -185 -107 -303 -289 -303z" />
    <glyph glyph-name="uni01D9" unicode="&#x1d9;" horiz-adv-x="711" 
d="M290 910l-104 129h121l51 -65h2l52 65h121l-104 -129h-139zM260 761c-42 0 -72 30 -72 68c0 37 30 68 72 68c41 0 72 -31 72 -68c0 -38 -31 -68 -72 -68zM453 761c-42 0 -72 30 -72 68c0 37 30 68 72 68c41 0 72 -31 72 -68c0 -38 -31 -68 -72 -68zM355 -9
c-171 0 -287 109 -287 303v416h141v-407c0 -102 52 -180 146 -180c86 0 148 67 148 180v407h141v-416c0 -185 -107 -303 -289 -303z" />
    <glyph glyph-name="uni01DB" unicode="&#x1db;" horiz-adv-x="711" 
d="M313 908l-130 128l138 -1l85 -127h-93zM260 761c-42 0 -72 30 -72 68c0 37 30 68 72 68c41 0 72 -31 72 -68c0 -38 -31 -68 -72 -68zM453 761c-42 0 -72 30 -72 68c0 37 30 68 72 68c41 0 72 -31 72 -68c0 -38 -31 -68 -72 -68zM355 -9c-171 0 -287 109 -287 303v416h141
v-407c0 -102 52 -180 146 -180c86 0 148 67 148 180v407h141v-416c0 -185 -107 -303 -289 -303z" />
    <glyph glyph-name="uni1E30" unicode="&#x1e30;" horiz-adv-x="663" 
d="M231 769l111 135h139l-126 -135h-124zM77 0v710h141v-311h2l243 311h179l-262 -313l271 -397h-174l-190 285l-69 -82v-203h-141z" />
    <glyph glyph-name="Q.alt" horiz-adv-x="819" 
d="M771 355c0 -126 -52 -230 -138 -293l135 -111l-84 -104l-183 154c-29 -7 -59 -10 -91 -10c-215 0 -362 153 -362 364s147 364 362 364c208 0 361 -147 361 -364zM194 355c0 -129 88 -232 216 -232c122 0 214 98 214 232s-92 232 -214 232c-128 0 -216 -103 -216 -232z
" />
    <glyph glyph-name="a" unicode="a" horiz-adv-x="604" 
d="M270 -9c-134 0 -233 101 -233 252c0 148 99 253 230 253c57 0 109 -22 144 -64l2 1v56h131v-489h-125v58l-2 1c-34 -44 -83 -68 -147 -68zM295 109c67 0 124 53 124 133c0 79 -54 137 -124 137c-71 0 -125 -53 -125 -137c0 -78 51 -133 125 -133z" />
    <glyph glyph-name="aacute" unicode="&#xe1;" horiz-adv-x="604" 
d="M220 554l114 146l137 1l-124 -147h-127zM270 -9c-134 0 -233 101 -233 252c0 148 99 253 230 253c57 0 109 -22 144 -64l2 1v56h131v-489h-125v58l-2 1c-34 -44 -83 -68 -147 -68zM295 109c67 0 124 53 124 133c0 79 -54 137 -124 137c-71 0 -125 -53 -125 -137
c0 -78 51 -133 125 -133z" />
    <glyph glyph-name="abreve" unicode="&#x103;" horiz-adv-x="604" 
d="M301 543c-95 0 -156 57 -163 153h99c3 -30 26 -57 64 -57c39 0 62 27 64 57h99c-7 -91 -63 -153 -163 -153zM270 -9c-134 0 -233 101 -233 252c0 148 99 253 230 253c57 0 109 -22 144 -64l2 1v56h131v-489h-125v58l-2 1c-34 -44 -83 -68 -147 -68zM295 109
c67 0 124 53 124 133c0 79 -54 137 -124 137c-71 0 -125 -53 -125 -137c0 -78 51 -133 125 -133z" />
    <glyph glyph-name="uni1EAF" unicode="&#x1eaf;" horiz-adv-x="604" 
d="M251 712l79 147h134l-120 -147h-93zM301 543c-95 0 -156 57 -163 153h99c3 -30 26 -57 64 -57c39 0 62 27 64 57h99c-7 -91 -63 -153 -163 -153zM270 -9c-134 0 -233 101 -233 252c0 148 99 253 230 253c57 0 109 -22 144 -64l2 1v56h131v-489h-125v58l-2 1
c-34 -44 -83 -68 -147 -68zM295 109c67 0 124 53 124 133c0 79 -54 137 -124 137c-71 0 -125 -53 -125 -137c0 -78 51 -133 125 -133z" />
    <glyph glyph-name="uni1EB7" unicode="&#x1eb7;" horiz-adv-x="604" 
d="M301 543c-95 0 -156 57 -163 153h99c3 -30 26 -57 64 -57c39 0 62 27 64 57h99c-7 -91 -63 -153 -163 -153zM270 -9c-134 0 -233 101 -233 252c0 148 99 253 230 253c57 0 109 -22 144 -64l2 1v56h131v-489h-125v58l-2 1c-34 -44 -83 -68 -147 -68zM295 109
c67 0 124 53 124 133c0 79 -54 137 -124 137c-71 0 -125 -53 -125 -137c0 -78 51 -133 125 -133zM293 -69c48 0 83 -36 83 -81c0 -44 -35 -80 -83 -80c-47 0 -83 36 -83 80c0 45 36 81 83 81z" />
    <glyph glyph-name="uni1EB1" unicode="&#x1eb1;" horiz-adv-x="604" 
d="M260 712l-121 147h135l79 -147h-93zM301 543c-95 0 -156 57 -163 153h99c3 -30 26 -57 64 -57c39 0 62 27 64 57h99c-7 -91 -63 -153 -163 -153zM270 -9c-134 0 -233 101 -233 252c0 148 99 253 230 253c57 0 109 -22 144 -64l2 1v56h131v-489h-125v58l-2 1
c-34 -44 -83 -68 -147 -68zM295 109c67 0 124 53 124 133c0 79 -54 137 -124 137c-71 0 -125 -53 -125 -137c0 -78 51 -133 125 -133z" />
    <glyph glyph-name="uni1EB3" unicode="&#x1eb3;" horiz-adv-x="604" 
d="M254 698c37 27 60 54 60 76c0 12 -11 20 -28 20c-24 0 -45 -7 -74 -27l-26 56c24 24 71 52 134 52c55 0 93 -26 93 -79c0 -46 -41 -83 -79 -98h-80zM301 544c-98 0 -161 54 -169 144h103c3 -28 27 -54 66 -54c40 0 64 26 66 54h103c-8 -86 -66 -144 -169 -144zM270 -9
c-134 0 -233 101 -233 252c0 148 99 253 230 253c57 0 109 -22 144 -64l2 1v56h131v-489h-125v58l-2 1c-34 -44 -83 -68 -147 -68zM295 109c67 0 124 53 124 133c0 79 -54 137 -124 137c-71 0 -125 -53 -125 -137c0 -78 51 -133 125 -133z" />
    <glyph glyph-name="uni1EB5" unicode="&#x1eb5;" horiz-adv-x="604" 
d="M192 728l-77 33c21 60 55 106 114 106c25 0 48 -7 78 -23c31 -19 41 -22 51 -22c25 0 41 18 54 48l78 -25c-20 -63 -59 -115 -117 -115c-28 0 -54 13 -76 26s-39 23 -57 22c-17 -2 -36 -20 -48 -50zM300 543c-95 0 -156 57 -163 153h99c3 -30 26 -57 64 -57
c39 0 62 27 64 57h99c-7 -91 -63 -153 -163 -153zM270 -9c-134 0 -233 101 -233 252c0 148 99 253 230 253c57 0 109 -22 144 -64l2 1v56h131v-489h-125v58l-2 1c-34 -44 -83 -68 -147 -68zM295 109c67 0 124 53 124 133c0 79 -54 137 -124 137c-71 0 -125 -53 -125 -137
c0 -78 51 -133 125 -133z" />
    <glyph glyph-name="uni01CE" unicode="&#x1ce;" horiz-adv-x="604" 
d="M231 549l-102 147h121l50 -75h2l50 75h120l-102 -147h-139zM270 -9c-134 0 -233 101 -233 252c0 148 99 253 230 253c57 0 109 -22 144 -64l2 1v56h131v-489h-125v58l-2 1c-34 -44 -83 -68 -147 -68zM295 109c67 0 124 53 124 133c0 79 -54 137 -124 137
c-71 0 -125 -53 -125 -137c0 -78 51 -133 125 -133z" />
    <glyph glyph-name="acircumflex" unicode="&#xe2;" horiz-adv-x="604" 
d="M129 551l103 147h139l101 -147h-120l-50 75h-2l-50 -75h-121zM270 -9c-134 0 -233 101 -233 252c0 148 99 253 230 253c57 0 109 -22 144 -64l2 1v56h131v-489h-125v58l-2 1c-34 -44 -83 -68 -147 -68zM295 109c67 0 124 53 124 133c0 79 -54 137 -124 137
c-71 0 -125 -53 -125 -137c0 -78 51 -133 125 -133z" />
    <glyph glyph-name="uni1EA5" unicode="&#x1ea5;" horiz-adv-x="604" 
d="M439 648l80 147h134l-120 -147h-94zM129 551l103 147h139l101 -147h-120l-50 75h-2l-50 -75h-121zM270 -9c-134 0 -233 101 -233 252c0 148 99 253 230 253c57 0 109 -22 144 -64l2 1v56h131v-489h-125v58l-2 1c-34 -44 -83 -68 -147 -68zM295 109c67 0 124 53 124 133
c0 79 -54 137 -124 137c-71 0 -125 -53 -125 -137c0 -78 51 -133 125 -133z" />
    <glyph glyph-name="uni1EAD" unicode="&#x1ead;" horiz-adv-x="604" 
d="M129 551l103 147h139l101 -147h-120l-50 75h-2l-50 -75h-121zM270 -9c-134 0 -233 101 -233 252c0 148 99 253 230 253c57 0 109 -22 144 -64l2 1v56h131v-489h-125v58l-2 1c-34 -44 -83 -68 -147 -68zM295 109c67 0 124 53 124 133c0 79 -54 137 -124 137
c-71 0 -125 -53 -125 -137c0 -78 51 -133 125 -133zM293 -69c48 0 83 -36 83 -81c0 -44 -35 -80 -83 -80c-47 0 -83 36 -83 80c0 45 36 81 83 81z" />
    <glyph glyph-name="uni1EA7" unicode="&#x1ea7;" horiz-adv-x="604" 
d="M469 648l-120 147h134l79 -147h-93zM129 551l103 147h139l101 -147h-120l-50 75h-2l-50 -75h-121zM270 -9c-134 0 -233 101 -233 252c0 148 99 253 230 253c57 0 109 -22 144 -64l2 1v56h131v-489h-125v58l-2 1c-34 -44 -83 -68 -147 -68zM295 109c67 0 124 53 124 133
c0 79 -54 137 -124 137c-71 0 -125 -53 -125 -137c0 -78 51 -133 125 -133z" />
    <glyph glyph-name="uni1EA9" unicode="&#x1ea9;" horiz-adv-x="604" 
d="M452 651c37 27 60 54 60 76c0 12 -11 20 -28 20c-24 0 -45 -7 -74 -27l-26 56c24 24 71 52 134 52c55 0 93 -26 93 -79c0 -46 -41 -83 -79 -98h-80zM129 551l103 147h139l101 -147h-120l-50 75h-2l-50 -75h-121zM270 -9c-134 0 -233 101 -233 252c0 148 99 253 230 253
c57 0 109 -22 144 -64l2 1v56h131v-489h-125v58l-2 1c-34 -44 -83 -68 -147 -68zM295 109c67 0 124 53 124 133c0 79 -54 137 -124 137c-71 0 -125 -53 -125 -137c0 -78 51 -133 125 -133z" />
    <glyph glyph-name="uni1EAB" unicode="&#x1eab;" horiz-adv-x="604" 
d="M194 732l-77 33c21 60 55 106 114 106c25 0 48 -7 78 -23c31 -19 41 -22 51 -22c25 0 41 18 54 48l78 -25c-20 -63 -59 -115 -117 -115c-28 0 -54 13 -76 26s-39 23 -57 22c-17 -2 -36 -20 -48 -50zM130 551l103 147h139l101 -147h-120l-50 75h-2l-50 -75h-121zM270 -9
c-134 0 -233 101 -233 252c0 148 99 253 230 253c57 0 109 -22 144 -64l2 1v56h131v-489h-125v58l-2 1c-34 -44 -83 -68 -147 -68zM295 109c67 0 124 53 124 133c0 79 -54 137 -124 137c-71 0 -125 -53 -125 -137c0 -78 51 -133 125 -133z" />
    <glyph glyph-name="adieresis" unicode="&#xe4;" horiz-adv-x="604" 
d="M195 557c-46 0 -82 36 -82 80c0 43 36 79 82 79c47 0 83 -36 83 -80s-36 -79 -83 -79zM405 557c-47 0 -82 36 -82 80c0 43 35 79 82 79c46 0 83 -36 83 -80s-37 -79 -83 -79zM270 -9c-134 0 -233 101 -233 252c0 148 99 253 230 253c57 0 109 -22 144 -64l2 1v56h131
v-489h-125v58l-2 1c-34 -44 -83 -68 -147 -68zM295 109c67 0 124 53 124 133c0 79 -54 137 -124 137c-71 0 -125 -53 -125 -137c0 -78 51 -133 125 -133z" />
    <glyph glyph-name="uni1EA1" unicode="&#x1ea1;" horiz-adv-x="604" 
d="M270 -9c-134 0 -233 101 -233 252c0 148 99 253 230 253c57 0 109 -22 144 -64l2 1v56h131v-489h-125v58l-2 1c-34 -44 -83 -68 -147 -68zM295 109c67 0 124 53 124 133c0 79 -54 137 -124 137c-71 0 -125 -53 -125 -137c0 -78 51 -133 125 -133zM293 -69
c48 0 83 -36 83 -81c0 -44 -35 -80 -83 -80c-47 0 -83 36 -83 80c0 45 36 81 83 81z" />
    <glyph glyph-name="agrave" unicode="&#xe0;" horiz-adv-x="604" 
d="M263 552l-124 146l140 -1l108 -145h-124zM270 -9c-134 0 -233 101 -233 252c0 148 99 253 230 253c57 0 109 -22 144 -64l2 1v56h131v-489h-125v58l-2 1c-34 -44 -83 -68 -147 -68zM295 109c67 0 124 53 124 133c0 79 -54 137 -124 137c-71 0 -125 -53 -125 -137
c0 -78 51 -133 125 -133z" />
    <glyph glyph-name="uni1EA3" unicode="&#x1ea3;" horiz-adv-x="604" 
d="M260 552c40 29 65 58 64 81c0 13 -11 22 -29 22c-26 0 -48 -8 -80 -29l-27 60c25 25 76 55 143 55c59 0 99 -27 99 -84c0 -49 -44 -89 -84 -105h-86zM270 -9c-134 0 -233 101 -233 252c0 148 99 253 230 253c57 0 109 -22 144 -64l2 1v56h131v-489h-125v58l-2 1
c-34 -44 -83 -68 -147 -68zM295 109c67 0 124 53 124 133c0 79 -54 137 -124 137c-71 0 -125 -53 -125 -137c0 -78 51 -133 125 -133z" />
    <glyph glyph-name="amacron" unicode="&#x101;" horiz-adv-x="604" 
d="M148 579v105h305v-105h-305zM270 -9c-134 0 -233 101 -233 252c0 148 99 253 230 253c57 0 109 -22 144 -64l2 1v56h131v-489h-125v58l-2 1c-34 -44 -83 -68 -147 -68zM295 109c67 0 124 53 124 133c0 79 -54 137 -124 137c-71 0 -125 -53 -125 -137
c0 -78 51 -133 125 -133z" />
    <glyph glyph-name="aogonek" unicode="&#x105;" horiz-adv-x="604" 
d="M530 0c-51 -9 -81 -41 -81 -72c0 -25 15 -41 41 -41c23 0 29 3 39 7l7 -72c-20 -8 -47 -11 -73 -11c-70 0 -114 37 -114 90c0 34 23 76 70 105v52l-2 1c-34 -44 -83 -68 -147 -68c-134 0 -233 101 -233 252c0 148 99 253 230 253c57 0 109 -22 144 -64l2 1v56h131v-489
h-14zM295 109c67 0 124 53 124 133c0 79 -54 137 -124 137c-71 0 -125 -53 -125 -137c0 -78 51 -133 125 -133z" />
    <glyph glyph-name="aring" unicode="&#xe5;" horiz-adv-x="604" 
d="M301 539c-59 0 -109 44 -109 105c0 58 45 106 109 106c60 0 109 -45 109 -106c0 -57 -44 -105 -109 -105zM301 608c21 0 37 17 37 38c0 20 -16 36 -37 36s-37 -17 -37 -37c0 -21 16 -37 37 -37zM270 -9c-134 0 -233 101 -233 252c0 148 99 253 230 253
c57 0 109 -22 144 -64l2 1v56h131v-489h-125v58l-2 1c-34 -44 -83 -68 -147 -68zM295 109c67 0 124 53 124 133c0 79 -54 137 -124 137c-71 0 -125 -53 -125 -137c0 -78 51 -133 125 -133z" />
    <glyph glyph-name="aringacute" unicode="&#x1fb;" horiz-adv-x="604" 
d="M301 539c-59 0 -109 44 -109 105c0 58 45 106 109 106c29 0 56 -11 76 -29l58 44h141l-166 -131c-5 -52 -48 -95 -109 -95zM301 682c-21 0 -37 -17 -37 -37c0 -21 16 -37 37 -37s37 17 37 38c0 20 -16 36 -37 36zM413 433v56h131v-489h-125v58l-2 1
c-34 -44 -83 -68 -147 -68c-134 0 -233 101 -233 252c0 148 99 253 230 253c57 0 109 -22 144 -64zM295 109c67 0 124 53 124 133c0 79 -54 137 -124 137c-71 0 -125 -53 -125 -137c0 -78 51 -133 125 -133z" />
    <glyph glyph-name="atilde" unicode="&#xe3;" horiz-adv-x="604" 
d="M383 551c-37 0 -64 15 -88 30c-18 11 -36 21 -54 21c-26 0 -44 -20 -57 -50l-78 33c21 67 61 116 120 116c41 0 65 -14 86 -27c18 -11 35 -23 55 -23c24 0 43 20 56 50l77 -26c-20 -73 -62 -124 -117 -124zM270 -9c-134 0 -233 101 -233 252c0 148 99 253 230 253
c57 0 109 -22 144 -64l2 1v56h131v-489h-125v58l-2 1c-34 -44 -83 -68 -147 -68zM295 109c67 0 124 53 124 133c0 79 -54 137 -124 137c-71 0 -125 -53 -125 -137c0 -78 51 -133 125 -133z" />
    <glyph glyph-name="ae" unicode="&#xe6;" horiz-adv-x="789" 
d="M763 249c0 -16 -2 -40 -4 -48h-319c14 -56 56 -93 121 -93c50 0 80 20 106 55l84 -80c-42 -52 -94 -92 -200 -92c-72 0 -129 28 -168 72h-2c-33 -38 -94 -72 -174 -72c-125 0 -180 70 -180 154c0 95 63 152 196 153h88v5c0 64 -27 83 -80 83c-38 0 -88 -13 -127 -33
l-47 100c32 17 111 43 185 43c64 0 115 -17 148 -66h2c41 45 102 66 157 66c127 0 214 -104 214 -247zM440 296h192c-7 47 -34 86 -90 86c-49 0 -88 -34 -102 -86zM222 92c50 0 89 36 89 80v37h-74c-55 0 -84 -19 -84 -59c0 -34 22 -58 69 -58z" />
    <glyph glyph-name="aeacute" unicode="&#x1fd;" horiz-adv-x="789" 
d="M569 701l-124 -147h-127l114 146zM763 249c0 -16 -2 -40 -4 -48h-319c14 -56 56 -93 121 -93c50 0 80 20 106 55l84 -80c-42 -52 -94 -92 -200 -92c-72 0 -129 28 -168 72h-2c-33 -38 -94 -72 -174 -72c-125 0 -180 70 -180 154c0 95 63 152 196 153h88v5
c0 64 -27 83 -80 83c-38 0 -88 -13 -127 -33l-47 100c32 17 111 43 185 43c64 0 115 -17 148 -66h2c41 45 102 66 157 66c127 0 214 -104 214 -247zM440 296h192c-7 47 -34 86 -90 86c-49 0 -88 -34 -102 -86zM222 92c50 0 89 36 89 80v37h-74c-55 0 -84 -19 -84 -59
c0 -34 22 -58 69 -58z" />
    <glyph glyph-name="b" unicode="b" horiz-adv-x="614" 
d="M341 -9c-66 0 -115 24 -150 69l-2 -1v-59h-124v736h131v-303h1c37 42 88 63 148 63c132 0 231 -105 231 -253c0 -151 -99 -252 -235 -252zM318 109c73 0 125 55 125 133c0 84 -56 137 -126 137c-75 0 -127 -58 -127 -137c0 -80 56 -133 128 -133z" />
    <glyph glyph-name="c" unicode="c" horiz-adv-x="528" 
d="M290 -9c-146 0 -252 102 -252 252c0 151 105 253 256 253c76 0 156 -28 207 -88l-86 -81c-26 32 -66 52 -112 52c-79 0 -132 -55 -132 -135c0 -81 54 -135 132 -135c50 0 89 21 115 53l85 -82c-42 -52 -109 -89 -213 -89z" />
    <glyph glyph-name="cacute" unicode="&#x107;" horiz-adv-x="528" 
d="M219 554l114 146l137 1l-124 -147h-127zM290 -9c-146 0 -252 102 -252 252c0 151 105 253 256 253c76 0 156 -28 207 -88l-86 -81c-26 32 -66 52 -112 52c-79 0 -132 -55 -132 -135c0 -81 54 -135 132 -135c50 0 89 21 115 53l85 -82c-42 -52 -109 -89 -213 -89z" />
    <glyph glyph-name="ccaron" unicode="&#x10d;" horiz-adv-x="528" 
d="M225 549l-102 147h121l50 -75h2l50 75h120l-102 -147h-139zM290 -9c-146 0 -252 102 -252 252c0 151 105 253 256 253c76 0 156 -28 207 -88l-86 -81c-26 32 -66 52 -112 52c-79 0 -132 -55 -132 -135c0 -81 54 -135 132 -135c50 0 89 21 115 53l85 -82
c-42 -52 -109 -89 -213 -89z" />
    <glyph glyph-name="ccedilla" unicode="&#xe7;" horiz-adv-x="528" 
d="M304 -9l-10 -20v-2c65 -2 98 -31 98 -81c0 -45 -39 -79 -128 -79c-29 0 -46 3 -61 6v59c12 -4 27 -7 48 -7c22 0 48 7 48 28c0 18 -29 32 -79 32v37l15 32c-117 22 -197 116 -197 247c0 151 105 253 256 253c76 0 156 -28 207 -88l-86 -81c-26 32 -66 52 -112 52
c-79 0 -132 -55 -132 -135c0 -81 54 -135 132 -135c50 0 89 21 115 53l85 -82c-40 -50 -103 -85 -199 -89z" />
    <glyph glyph-name="ccircumflex" unicode="&#x109;" horiz-adv-x="528" 
d="M123 551l103 147h139l101 -147h-120l-50 75h-2l-50 -75h-121zM290 -9c-146 0 -252 102 -252 252c0 151 105 253 256 253c76 0 156 -28 207 -88l-86 -81c-26 32 -66 52 -112 52c-79 0 -132 -55 -132 -135c0 -81 54 -135 132 -135c50 0 89 21 115 53l85 -82
c-42 -52 -109 -89 -213 -89z" />
    <glyph glyph-name="cdotaccent" unicode="&#x10b;" horiz-adv-x="528" 
d="M296 555c-48 0 -83 36 -83 81c0 44 35 80 83 80c47 0 83 -36 83 -80c0 -45 -36 -81 -83 -81zM290 -9c-146 0 -252 102 -252 252c0 151 105 253 256 253c76 0 156 -28 207 -88l-86 -81c-26 32 -66 52 -112 52c-79 0 -132 -55 -132 -135c0 -81 54 -135 132 -135
c50 0 89 21 115 53l85 -82c-42 -52 -109 -89 -213 -89z" />
    <glyph glyph-name="d" unicode="d" horiz-adv-x="613" 
d="M271 -9c-135 0 -234 101 -234 252c0 148 100 253 231 253c60 0 112 -22 148 -64h2v304h130v-736h-125v60h-1c-34 -44 -85 -69 -151 -69zM295 109c72 0 128 53 128 133c0 79 -53 137 -128 137c-70 0 -125 -53 -125 -137c0 -78 52 -133 125 -133z" />
    <glyph glyph-name="eth" unicode="&#xf0;" horiz-adv-x="591" 
d="M448 550c66 -81 105 -178 105 -282c0 -192 -106 -276 -259 -276c-146 0 -255 101 -255 240c0 151 101 245 224 245c45 0 89 -14 125 -41l1 1c-10 16 -21 31 -33 46c-57 68 -139 123 -237 167l55 91c52 -19 101 -45 145 -75l74 94l85 -63l-78 -96c17 -16 33 -33 48 -51z
M294 109c74 0 126 56 126 132c0 73 -52 127 -125 127c-72 0 -124 -57 -124 -127c0 -77 54 -132 123 -132z" />
    <glyph glyph-name="dcaron" unicode="&#x10f;" horiz-adv-x="689" 
d="M607 580l31 206h125l-63 -206h-93zM271 -9c-135 0 -234 101 -234 252c0 148 100 253 231 253c60 0 112 -22 148 -64h2v304h130v-736h-125v60h-1c-34 -44 -85 -69 -151 -69zM295 109c72 0 128 53 128 133c0 79 -53 137 -128 137c-70 0 -125 -53 -125 -137
c0 -78 52 -133 125 -133z" />
    <glyph glyph-name="dcroat" unicode="&#x111;" horiz-adv-x="606" 
d="M607 638v-84h-59v-554h-125v60h-1c-34 -44 -85 -69 -151 -69c-135 0 -234 101 -234 252c0 148 100 253 231 253c60 0 112 -22 148 -64h2v122h-177v84h177v98h130v-98h59zM295 109c72 0 128 53 128 133c0 79 -53 137 -128 137c-70 0 -125 -53 -125 -137
c0 -78 52 -133 125 -133z" />
    <glyph glyph-name="uni1E0D" unicode="&#x1e0d;" horiz-adv-x="613" 
d="M271 -9c-135 0 -234 101 -234 252c0 148 100 253 231 253c60 0 112 -22 148 -64h2v304h130v-736h-125v60h-1c-34 -44 -85 -69 -151 -69zM295 109c72 0 128 53 128 133c0 79 -53 137 -128 137c-70 0 -125 -53 -125 -137c0 -78 52 -133 125 -133zM307 -69
c48 0 83 -36 83 -81c0 -44 -35 -80 -83 -80c-47 0 -83 36 -83 80c0 45 36 81 83 81z" />
    <glyph glyph-name="uni1E0F" unicode="&#x1e0f;" horiz-adv-x="613" 
d="M271 -9c-135 0 -234 101 -234 252c0 148 100 253 231 253c60 0 112 -22 148 -64h2v304h130v-736h-125v60h-1c-34 -44 -85 -69 -151 -69zM295 109c72 0 128 53 128 133c0 79 -53 137 -128 137c-70 0 -125 -53 -125 -137c0 -78 52 -133 125 -133zM460 -213h-305v105h305
v-105z" />
    <glyph glyph-name="e" unicode="e" horiz-adv-x="557" 
d="M520 249c0 -16 -2 -39 -3 -47h-343c16 -59 63 -94 129 -94c55 0 93 23 119 55l85 -79c-41 -53 -104 -93 -213 -93c-150 0 -256 101 -256 254c0 149 103 251 248 251c138 0 234 -104 234 -247zM285 382c-53 0 -95 -30 -110 -86h215c-13 52 -48 86 -105 86z" />
    <glyph glyph-name="eacute" unicode="&#xe9;" horiz-adv-x="556" 
d="M469 701l-124 -147h-127l114 146zM520 249c0 -16 -2 -39 -3 -47h-343c16 -59 63 -94 129 -94c55 0 93 23 119 55l85 -79c-41 -53 -104 -93 -213 -93c-150 0 -256 101 -256 254c0 149 103 251 248 251c138 0 234 -104 234 -247zM285 382c-53 0 -95 -30 -110 -86h215
c-13 52 -48 86 -105 86z" />
    <glyph glyph-name="ebreve" unicode="&#x115;" horiz-adv-x="557" 
d="M287 543c-95 0 -156 57 -163 153h99c3 -30 26 -57 64 -57c39 0 62 27 64 57h99c-7 -91 -63 -153 -163 -153zM520 249c0 -16 -2 -39 -3 -47h-343c16 -59 63 -94 129 -94c55 0 93 23 119 55l85 -79c-41 -53 -104 -93 -213 -93c-150 0 -256 101 -256 254
c0 149 103 251 248 251c138 0 234 -104 234 -247zM285 382c-53 0 -95 -30 -110 -86h215c-13 52 -48 86 -105 86z" />
    <glyph glyph-name="ecaron" unicode="&#x11b;" horiz-adv-x="557" 
d="M356 549h-139l-102 147h121l50 -75h2l50 75h120zM520 249c0 -16 -2 -39 -3 -47h-343c16 -59 63 -94 129 -94c55 0 93 23 119 55l85 -79c-41 -53 -104 -93 -213 -93c-150 0 -256 101 -256 254c0 149 103 251 248 251c138 0 234 -104 234 -247zM285 382
c-53 0 -95 -30 -110 -86h215c-13 52 -48 86 -105 86z" />
    <glyph glyph-name="ecircumflex" unicode="&#xea;" horiz-adv-x="557" 
d="M286 626l-50 -75h-121l103 147h139l101 -147h-120l-50 75h-2zM520 249c0 -16 -2 -39 -3 -47h-343c16 -59 63 -94 129 -94c55 0 93 23 119 55l85 -79c-41 -53 -104 -93 -213 -93c-150 0 -256 101 -256 254c0 149 103 251 248 251c138 0 234 -104 234 -247zM285 382
c-53 0 -95 -30 -110 -86h215c-13 52 -48 86 -105 86z" />
    <glyph glyph-name="uni1EBF" unicode="&#x1ebf;" horiz-adv-x="557" 
d="M639 795l-120 -147h-94l80 147h134zM286 626l-50 -75h-121l103 147h139l101 -147h-120l-50 75h-2zM286 496c138 0 234 -104 234 -247c0 -16 -2 -39 -3 -47h-343c16 -59 63 -94 129 -94c55 0 93 23 119 55l85 -79c-41 -53 -104 -93 -213 -93c-150 0 -256 101 -256 254
c0 149 103 251 248 251zM285 382c-53 0 -95 -30 -110 -86h215c-13 52 -48 86 -105 86z" />
    <glyph glyph-name="uni1EC7" unicode="&#x1ec7;" horiz-adv-x="557" 
d="M286 626l-50 -75h-121l103 147h139l101 -147h-120l-50 75h-2zM520 249c0 -16 -2 -39 -3 -47h-343c16 -59 63 -94 129 -94c55 0 93 23 119 55l85 -79c-41 -53 -104 -93 -213 -93c-150 0 -256 101 -256 254c0 149 103 251 248 251c138 0 234 -104 234 -247zM285 382
c-53 0 -95 -30 -110 -86h215c-13 52 -48 86 -105 86zM291 -69c48 0 83 -36 83 -81c0 -44 -35 -80 -83 -80c-47 0 -83 36 -83 80c0 45 36 81 83 81z" />
    <glyph glyph-name="uni1EC1" unicode="&#x1ec1;" horiz-adv-x="557" 
d="M548 648h-93l-120 147h134zM286 626l-50 -75h-121l103 147h139l101 -147h-120l-50 75h-2zM286 496c138 0 234 -104 234 -247c0 -16 -2 -39 -3 -47h-343c16 -59 63 -94 129 -94c55 0 93 23 119 55l85 -79c-41 -53 -104 -93 -213 -93c-150 0 -256 101 -256 254
c0 149 103 251 248 251zM285 382c-53 0 -95 -30 -110 -86h215c-13 52 -48 86 -105 86z" />
    <glyph glyph-name="uni1EC3" unicode="&#x1ec3;" horiz-adv-x="557" 
d="M504 828c55 0 93 -26 93 -79c0 -46 -41 -83 -79 -98h-80c37 27 60 54 60 76c0 12 -11 20 -28 20c-24 0 -45 -7 -74 -27l-26 56c24 24 71 52 134 52zM286 626l-50 -75h-121l103 147h139l101 -147h-120l-50 75h-2zM286 496c138 0 234 -104 234 -247c0 -16 -2 -39 -3 -47
h-343c16 -59 63 -94 129 -94c55 0 93 23 119 55l85 -79c-41 -53 -104 -93 -213 -93c-150 0 -256 101 -256 254c0 149 103 251 248 251zM285 382c-53 0 -95 -30 -110 -86h215c-13 52 -48 86 -105 86z" />
    <glyph glyph-name="uni1EC5" unicode="&#x1ec5;" horiz-adv-x="557" 
d="M228 782c-17 -2 -36 -20 -48 -50l-77 33c21 60 55 106 114 106c25 0 48 -7 78 -23c31 -19 41 -22 51 -22c25 0 41 18 54 48l78 -25c-20 -63 -59 -115 -117 -115c-28 0 -54 13 -76 26s-39 23 -57 22zM219 698h139l101 -147h-120l-50 75h-2l-50 -75h-121zM520 249
c0 -16 -2 -39 -3 -47h-343c16 -59 63 -94 129 -94c55 0 93 23 119 55l85 -79c-41 -53 -104 -93 -213 -93c-150 0 -256 101 -256 254c0 149 103 251 248 251c138 0 234 -104 234 -247zM285 382c-53 0 -95 -30 -110 -86h215c-13 52 -48 86 -105 86z" />
    <glyph glyph-name="edieresis" unicode="&#xeb;" horiz-adv-x="557" 
d="M181 557c-46 0 -82 36 -82 80c0 43 36 79 82 79c47 0 83 -36 83 -80s-36 -79 -83 -79zM391 557c-47 0 -82 36 -82 80c0 43 35 79 82 79c46 0 83 -36 83 -80s-37 -79 -83 -79zM520 249c0 -16 -2 -39 -3 -47h-343c16 -59 63 -94 129 -94c55 0 93 23 119 55l85 -79
c-41 -53 -104 -93 -213 -93c-150 0 -256 101 -256 254c0 149 103 251 248 251c138 0 234 -104 234 -247zM285 382c-53 0 -95 -30 -110 -86h215c-13 52 -48 86 -105 86z" />
    <glyph glyph-name="edotaccent" unicode="&#x117;" horiz-adv-x="557" 
d="M288 555c-48 0 -83 36 -83 81c0 44 35 80 83 80c47 0 83 -36 83 -80c0 -45 -36 -81 -83 -81zM520 249c0 -16 -2 -39 -3 -47h-343c16 -59 63 -94 129 -94c55 0 93 23 119 55l85 -79c-41 -53 -104 -93 -213 -93c-150 0 -256 101 -256 254c0 149 103 251 248 251
c138 0 234 -104 234 -247zM285 382c-53 0 -95 -30 -110 -86h215c-13 52 -48 86 -105 86z" />
    <glyph glyph-name="uni1EB9" unicode="&#x1eb9;" horiz-adv-x="557" 
d="M520 249c0 -16 -2 -39 -3 -47h-343c16 -59 63 -94 129 -94c55 0 93 23 119 55l85 -79c-41 -53 -104 -93 -213 -93c-150 0 -256 101 -256 254c0 149 103 251 248 251c138 0 234 -104 234 -247zM285 382c-53 0 -95 -30 -110 -86h215c-13 52 -48 86 -105 86zM291 -69
c48 0 83 -36 83 -81c0 -44 -35 -80 -83 -80c-47 0 -83 36 -83 80c0 45 36 81 83 81z" />
    <glyph glyph-name="egrave" unicode="&#xe8;" horiz-adv-x="556" 
d="M372 552h-124l-124 146l140 -1zM520 249c0 -16 -2 -39 -3 -47h-343c16 -59 63 -94 129 -94c55 0 93 23 119 55l85 -79c-41 -53 -104 -93 -213 -93c-150 0 -256 101 -256 254c0 149 103 251 248 251c138 0 234 -104 234 -247zM285 382c-53 0 -95 -30 -110 -86h215
c-13 52 -48 86 -105 86z" />
    <glyph glyph-name="uni1EBB" unicode="&#x1ebb;" horiz-adv-x="557" 
d="M281 655c-26 0 -48 -8 -80 -29l-27 60c25 25 76 55 143 55c59 0 99 -27 99 -84c0 -49 -44 -89 -84 -105h-86c40 29 65 58 64 81c0 13 -11 22 -29 22zM520 249c0 -16 -2 -39 -3 -47h-343c16 -59 63 -94 129 -94c55 0 93 23 119 55l85 -79c-41 -53 -104 -93 -213 -93
c-150 0 -256 101 -256 254c0 149 103 251 248 251c138 0 234 -104 234 -247zM285 382c-53 0 -95 -30 -110 -86h215c-13 52 -48 86 -105 86z" />
    <glyph glyph-name="emacron" unicode="&#x113;" horiz-adv-x="557" 
d="M439 684v-105h-305v105h305zM520 249c0 -16 -2 -39 -3 -47h-343c16 -59 63 -94 129 -94c55 0 93 23 119 55l85 -79c-41 -53 -104 -93 -213 -93c-150 0 -256 101 -256 254c0 149 103 251 248 251c138 0 234 -104 234 -247zM285 382c-53 0 -95 -30 -110 -86h215
c-13 52 -48 86 -105 86z" />
    <glyph glyph-name="eogonek" unicode="&#x119;" horiz-adv-x="556" 
d="M520 249c0 -16 -2 -39 -3 -47h-343c16 -59 63 -94 129 -94c55 0 93 23 119 55l85 -79c-32 -41 -77 -75 -147 -87c-38 -17 -65 -39 -65 -66c0 -22 15 -37 41 -37c25 0 29 3 40 6l6 -74c-19 -9 -47 -13 -73 -13c-76 0 -120 38 -120 92c0 28 16 62 49 88v3
c-120 22 -200 116 -200 249c0 149 103 251 248 251c138 0 234 -104 234 -247zM285 382c-53 0 -95 -30 -110 -86h215c-13 52 -48 86 -105 86z" />
    <glyph glyph-name="uni1EBD" unicode="&#x1ebd;" horiz-adv-x="557" 
d="M227 602c-26 0 -44 -20 -57 -50l-78 33c21 67 61 116 120 116c41 0 65 -14 86 -27c18 -11 35 -23 55 -23c24 0 43 20 56 50l77 -26c-20 -73 -62 -124 -117 -124c-37 0 -64 15 -88 30c-18 11 -36 21 -54 21zM520 249c0 -16 -2 -39 -3 -47h-343c16 -59 63 -94 129 -94
c55 0 93 23 119 55l85 -79c-41 -53 -104 -93 -213 -93c-150 0 -256 101 -256 254c0 149 103 251 248 251c138 0 234 -104 234 -247zM285 382c-53 0 -95 -30 -110 -86h215c-13 52 -48 86 -105 86z" />
    <glyph glyph-name="uni0259" unicode="&#x259;" horiz-adv-x="556" 
d="M259 496c146 0 259 -90 259 -255c0 -147 -89 -250 -243 -250c-156 0 -238 108 -238 247c0 13 2 39 4 49h343c-16 64 -68 96 -134 96c-41 0 -82 -11 -124 -33l-53 102c51 26 115 44 186 44zM274 106c59 0 95 32 109 85h-215c10 -52 46 -85 106 -85z" />
    <glyph glyph-name="f" unicode="f" horiz-adv-x="345" 
d="M82 0v380h-51v109h51v83c0 114 57 173 154 173c59 0 104 -21 126 -36l-27 -102c-27 13 -54 22 -72 22c-31 0 -49 -19 -49 -66v-74h108v-109h-108v-380h-132z" />
    <glyph glyph-name="g" unicode="g" horiz-adv-x="602" 
d="M286 -206c-75 0 -142 16 -200 49l31 111c48 -27 95 -46 159 -46c91 0 137 50 137 108v49h-2c-35 -36 -84 -56 -142 -56c-134 0 -233 98 -233 240c0 144 96 247 226 247c54 0 107 -19 147 -58h2v51h131v-433c0 -153 -67 -262 -256 -262zM293 127c72 0 123 53 123 127
s-53 124 -123 124c-73 0 -124 -51 -124 -125c0 -77 54 -126 124 -126z" />
    <glyph glyph-name="gbreve" unicode="&#x11f;" horiz-adv-x="602" 
d="M294 543c-95 0 -156 57 -163 153h99c3 -30 26 -57 64 -57c39 0 62 27 64 57h99c-7 -91 -63 -153 -163 -153zM286 -206c-75 0 -142 16 -200 49l31 111c48 -27 95 -46 159 -46c91 0 137 50 137 108v49h-2c-35 -36 -84 -56 -142 -56c-134 0 -233 98 -233 240
c0 144 96 247 226 247c54 0 107 -19 147 -58h2v51h131v-433c0 -153 -67 -262 -256 -262zM293 127c72 0 123 53 123 127s-53 124 -123 124c-73 0 -124 -51 -124 -125c0 -77 54 -126 124 -126z" />
    <glyph glyph-name="gcaron" unicode="&#x1e7;" horiz-adv-x="602" 
d="M224 549l-102 147h121l50 -75h2l50 75h120l-102 -147h-139zM286 -206c-75 0 -142 16 -200 49l31 111c48 -27 95 -46 159 -46c91 0 137 50 137 108v49h-2c-35 -36 -84 -56 -142 -56c-134 0 -233 98 -233 240c0 144 96 247 226 247c54 0 107 -19 147 -58h2v51h131v-433
c0 -153 -67 -262 -256 -262zM293 127c72 0 123 53 123 127s-53 124 -123 124c-73 0 -124 -51 -124 -125c0 -77 54 -126 124 -126z" />
    <glyph glyph-name="gcircumflex" unicode="&#x11d;" horiz-adv-x="602" 
d="M122 551l103 147h139l101 -147h-120l-50 75h-2l-50 -75h-121zM286 -206c-75 0 -142 16 -200 49l31 111c48 -27 95 -46 159 -46c91 0 137 50 137 108v49h-2c-35 -36 -84 -56 -142 -56c-134 0 -233 98 -233 240c0 144 96 247 226 247c54 0 107 -19 147 -58h2v51h131v-433
c0 -153 -67 -262 -256 -262zM293 127c72 0 123 53 123 127s-53 124 -123 124c-73 0 -124 -51 -124 -125c0 -77 54 -126 124 -126z" />
    <glyph glyph-name="gcommaaccent" unicode="&#x123;" horiz-adv-x="602" 
d="M375 729l27 -74c-39 -11 -55 -25 -55 -55c0 -13 2 -22 7 -38h-113c-4 14 -5 27 -5 45c0 78 59 117 139 122zM286 -206c-75 0 -142 16 -200 49l31 111c48 -27 95 -46 159 -46c91 0 137 50 137 108v49h-2c-35 -36 -84 -56 -142 -56c-134 0 -233 98 -233 240
c0 144 96 247 226 247c54 0 107 -19 147 -58h2v51h131v-433c0 -153 -67 -262 -256 -262zM293 127c72 0 123 53 123 127s-53 124 -123 124c-73 0 -124 -51 -124 -125c0 -77 54 -126 124 -126z" />
    <glyph glyph-name="gdotaccent" unicode="&#x121;" horiz-adv-x="602" 
d="M295 555c-48 0 -83 36 -83 81c0 44 35 80 83 80c47 0 83 -36 83 -80c0 -45 -36 -81 -83 -81zM286 -206c-75 0 -142 16 -200 49l31 111c48 -27 95 -46 159 -46c91 0 137 50 137 108v49h-2c-35 -36 -84 -56 -142 -56c-134 0 -233 98 -233 240c0 144 96 247 226 247
c54 0 107 -19 147 -58h2v51h131v-433c0 -153 -67 -262 -256 -262zM293 127c72 0 123 53 123 127s-53 124 -123 124c-73 0 -124 -51 -124 -125c0 -77 54 -126 124 -126z" />
    <glyph glyph-name="uni1E21" unicode="&#x1e21;" horiz-adv-x="602" 
d="M141 579v105h305v-105h-305zM286 -206c-75 0 -142 16 -200 49l31 111c48 -27 95 -46 159 -46c91 0 137 50 137 108v49h-2c-35 -36 -84 -56 -142 -56c-134 0 -233 98 -233 240c0 144 96 247 226 247c54 0 107 -19 147 -58h2v51h131v-433c0 -153 -67 -262 -256 -262z
M293 127c72 0 123 53 123 127s-53 124 -123 124c-73 0 -124 -51 -124 -125c0 -77 54 -126 124 -126z" />
    <glyph glyph-name="h" unicode="h" horiz-adv-x="593" 
d="M65 0v736h131v-306h1c40 44 96 66 160 66c104 0 179 -53 179 -203v-293h-131v260c0 89 -33 119 -95 119c-70 0 -114 -44 -114 -132v-247h-131z" />
    <glyph glyph-name="hbar" unicode="&#x127;" horiz-adv-x="593" 
d="M357 496c104 0 179 -53 179 -203v-293h-131v260c0 89 -33 119 -95 119c-70 0 -114 -44 -114 -132v-247h-131v554h-61v84h61v98h131v-98h170v-84h-170v-124h1c40 44 96 66 160 66z" />
    <glyph glyph-name="uni1E2B" unicode="&#x1e2b;" horiz-adv-x="593" 
d="M65 0v736h131v-306h1c40 44 96 66 160 66c104 0 179 -53 179 -203v-293h-131v260c0 89 -33 119 -95 119c-70 0 -114 -44 -114 -132v-247h-131zM293 -230c-100 0 -156 62 -163 153h99c2 -30 25 -57 64 -57c38 0 61 27 64 57h99c-7 -96 -68 -153 -163 -153z" />
    <glyph glyph-name="hcircumflex" unicode="&#x125;" horiz-adv-x="593" 
d="M75 780l104 135h139l104 -135h-121l-52 68h-2l-52 -68h-120zM65 0v736h131v-306h1c40 44 96 66 160 66c104 0 179 -53 179 -203v-293h-131v260c0 89 -33 119 -95 119c-70 0 -114 -44 -114 -132v-247h-131z" />
    <glyph glyph-name="uni1E25" unicode="&#x1e25;" horiz-adv-x="593" 
d="M65 0v736h131v-306h1c40 44 96 66 160 66c104 0 179 -53 179 -203v-293h-131v260c0 89 -33 119 -95 119c-70 0 -114 -44 -114 -132v-247h-131zM293 -69c48 0 83 -36 83 -81c0 -44 -35 -80 -83 -80c-47 0 -83 36 -83 80c0 45 36 81 83 81z" />
    <glyph glyph-name="i" unicode="i" horiz-adv-x="273" 
d="M138 555c-48 0 -83 36 -83 81c0 44 35 80 83 80c47 0 83 -36 83 -80c0 -45 -36 -81 -83 -81zM71 0v489h131v-489h-131z" />
    <glyph glyph-name="dotlessi" unicode="&#x131;" horiz-adv-x="273" 
d="M71 0v489h131v-489h-131z" />
    <glyph glyph-name="iacute" unicode="&#xed;" horiz-adv-x="273" 
d="M77 554l114 146l137 1l-124 -147h-127zM71 0v489h131v-489h-131z" />
    <glyph glyph-name="ibreve" unicode="&#x12d;" horiz-adv-x="273" 
d="M137 550c-77 0 -138 53 -146 150h98c3 -35 17 -63 48 -63c27 0 46 24 48 63h98c-7 -86 -57 -150 -146 -150zM71 0v489h131v-489h-131z" />
    <glyph glyph-name="uni01D0" unicode="&#x1d0;" horiz-adv-x="273" 
d="M67 549l-102 147h121l50 -75h2l50 75h120l-102 -147h-139zM71 0v489h131v-489h-131z" />
    <glyph glyph-name="icircumflex" unicode="&#xee;" horiz-adv-x="273" 
d="M-35 551l103 147h139l101 -147h-120l-50 75h-2l-50 -75h-121zM71 0v489h131v-489h-131z" />
    <glyph glyph-name="idieresis" unicode="&#xef;" horiz-adv-x="273" 
d="M44 555c-47 0 -83 37 -83 81s36 81 83 81c44 0 81 -37 81 -81s-37 -81 -81 -81zM231 557c-45 0 -81 36 -81 79s36 80 81 80c44 0 81 -37 81 -80s-37 -79 -81 -79zM71 0v489h131v-489h-131z" />
    <glyph glyph-name="i.loclTRK" horiz-adv-x="273" 
d="M138 555c-48 0 -83 36 -83 81c0 44 35 80 83 80c47 0 83 -36 83 -80c0 -45 -36 -81 -83 -81zM71 0v489h131v-489h-131z" />
    <glyph glyph-name="uni1ECB" unicode="&#x1ecb;" horiz-adv-x="273" 
d="M138 555c-48 0 -83 36 -83 81c0 44 35 80 83 80c47 0 83 -36 83 -80c0 -45 -36 -81 -83 -81zM71 0v489h131v-489h-131zM137 -69c48 0 83 -36 83 -81c0 -44 -35 -80 -83 -80c-47 0 -83 36 -83 80c0 45 36 81 83 81z" />
    <glyph glyph-name="igrave" unicode="&#xec;" horiz-adv-x="274" 
d="M74 557l-87 147l138 -1l76 -146h-127zM71 0v489h131v-489h-131z" />
    <glyph glyph-name="uni1EC9" unicode="&#x1ec9;" horiz-adv-x="273" 
d="M96 552c40 29 65 58 64 81c0 13 -11 22 -29 22c-26 0 -48 -8 -80 -29l-27 60c25 25 76 55 143 55c59 0 99 -27 99 -84c0 -49 -44 -89 -84 -105h-86zM71 0v489h131v-489h-131z" />
    <glyph glyph-name="ij" unicode="&#x133;" horiz-adv-x="527" 
d="M138 555c-48 0 -83 36 -83 81c0 44 35 80 83 80c47 0 83 -36 83 -80c0 -45 -36 -81 -83 -81zM402 555c-48 0 -83 36 -83 81c0 44 35 80 83 80c47 0 83 -36 83 -80c0 -45 -36 -81 -83 -81zM71 0v489h131v-489h-131zM323 -207c-44 0 -70 6 -102 19l22 108
c13 -7 33 -12 48 -12c31 0 45 23 45 68v513h131v-518c0 -118 -59 -178 -144 -178z" />
    <glyph glyph-name="imacron" unicode="&#x12b;" horiz-adv-x="273" 
d="M-16 579v105h305v-105h-305zM71 0v489h131v-489h-131z" />
    <glyph glyph-name="iogonek" unicode="&#x12f;" horiz-adv-x="273" 
d="M138 555c-48 0 -83 36 -83 81c0 44 35 80 83 80c47 0 83 -36 83 -80c0 -45 -36 -81 -83 -81zM71 2v487h131v-489h-14c-51 -9 -81 -41 -81 -72c0 -25 15 -41 41 -41c23 0 29 3 39 7l7 -72c-20 -8 -47 -11 -73 -11c-70 0 -114 37 -114 90c0 32 21 73 64 101z" />
    <glyph glyph-name="itilde" unicode="&#x129;" horiz-adv-x="273" 
d="M29 551l-77 33c21 61 55 108 114 108c25 0 48 -7 78 -24c31 -19 41 -22 51 -22c25 0 41 18 54 49l78 -26c-20 -64 -59 -116 -117 -116c-28 0 -54 13 -76 26s-39 23 -57 22c-17 -2 -36 -20 -48 -50zM71 0v489h131v-489h-131z" />
    <glyph glyph-name="j" unicode="j" horiz-adv-x="254" 
d="M129 555c-48 0 -83 36 -83 81c0 44 35 80 83 80c47 0 83 -36 83 -80c0 -45 -36 -81 -83 -81zM50 -207c-44 0 -70 6 -102 19l22 108c13 -7 33 -12 48 -12c31 0 45 23 45 68v513h131v-518c0 -118 -59 -178 -144 -178z" />
    <glyph glyph-name="uni0237" unicode="&#x237;" horiz-adv-x="254" 
d="M50 -207c-44 0 -70 6 -102 19l22 108c13 -7 33 -12 48 -12c31 0 45 23 45 68v513h131v-518c0 -118 -59 -178 -144 -178z" />
    <glyph glyph-name="uni006A0301" horiz-adv-x="254" 
d="M68 560l114 146l137 1l-124 -147h-127zM50 -207c-44 0 -70 6 -102 19l22 108c13 -7 33 -12 48 -12c31 0 45 23 45 68v513h131v-518c0 -118 -59 -178 -144 -178z" />
    <glyph glyph-name="jcircumflex" unicode="&#x135;" horiz-adv-x="254" 
d="M-44 551l103 147h139l101 -147h-120l-50 75h-2l-50 -75h-121zM50 -207c-44 0 -70 6 -102 19l22 108c13 -7 33 -12 48 -12c31 0 45 23 45 68v513h131v-518c0 -118 -59 -178 -144 -178z" />
    <glyph glyph-name="k" unicode="k" horiz-adv-x="536" 
d="M65 0v736h130v-452h2l174 205h154l-171 -196l175 -293h-147l-121 205l-66 -72v-133h-130z" />
    <glyph glyph-name="kcommaaccent" unicode="&#x137;" horiz-adv-x="536" 
d="M65 0v736h130v-452h2l174 205h154l-171 -196l175 -293h-147l-121 205l-66 -72v-133h-130zM202 -220l-27 74c39 11 55 25 55 55c0 13 -2 22 -7 38h113c4 -14 5 -27 5 -45c0 -78 -59 -117 -139 -122z" />
    <glyph glyph-name="kgreenlandic" unicode="&#x138;" horiz-adv-x="552" 
d="M65 0v488h130v-206h2l180 207h158l-187 -206l197 -283h-154l-133 198l-63 -68v-130h-130z" />
    <glyph glyph-name="l" unicode="l" horiz-adv-x="273" 
d="M71 0v736h131v-736h-131z" />
    <glyph glyph-name="lacute" unicode="&#x13a;" horiz-adv-x="273" 
d="M72 782l111 135h139l-126 -135h-124zM71 0v736h131v-736h-131z" />
    <glyph glyph-name="lcaron" unicode="&#x13e;" horiz-adv-x="342" 
d="M261 580l31 206h125l-63 -206h-93zM71 0v736h131v-736h-131z" />
    <glyph glyph-name="lcommaaccent" unicode="&#x13c;" horiz-adv-x="273" 
d="M71 0v736h131v-736h-131zM56 -220l-27 74c39 11 55 25 55 55c0 13 -2 22 -7 38h113c4 -14 5 -27 5 -45c0 -78 -59 -117 -139 -122z" />
    <glyph glyph-name="ldot" unicode="&#x140;" horiz-adv-x="466" 
d="M71 0v736h131v-736h-131zM368 173c-46 0 -83 36 -83 81c0 44 37 80 83 80c44 0 81 -36 81 -80c0 -45 -37 -81 -81 -81z" />
    <glyph glyph-name="uni1E37" unicode="&#x1e37;" horiz-adv-x="273" 
d="M71 0v736h131v-736h-131zM137 -69c48 0 83 -36 83 -81c0 -44 -35 -80 -83 -80c-47 0 -83 36 -83 80c0 45 36 81 83 81z" />
    <glyph glyph-name="uni1E39" unicode="&#x1e39;" horiz-adv-x="273" 
d="M-13 801v100h305v-100h-305zM71 0v736h131v-736h-131zM137 -69c48 0 83 -36 83 -81c0 -44 -35 -80 -83 -80c-47 0 -83 36 -83 80c0 45 36 81 83 81z" />
    <glyph glyph-name="uni1E3B" unicode="&#x1e3b;" horiz-adv-x="273" 
d="M71 0v736h131v-736h-131zM290 -213h-305v105h305v-105z" />
    <glyph glyph-name="lslash" unicode="&#x142;" horiz-adv-x="314" 
d="M295 430v-96l-69 -30v-304h-131v248l-73 -32v95l73 32v393h131v-336z" />
    <glyph glyph-name="m" unicode="m" horiz-adv-x="890" 
d="M65 0v489h131v-64h1c39 47 92 71 146 71c64 0 115 -24 144 -77h2c40 51 101 77 171 77c105 0 172 -63 172 -213v-283h-131v252c0 78 -24 127 -85 127c-55 0 -100 -47 -100 -135v-244h-131v252c0 78 -26 127 -86 127c-59 0 -103 -47 -103 -135v-244h-131z" />
    <glyph glyph-name="uni1E43" unicode="&#x1e43;" horiz-adv-x="890" 
d="M65 0v489h131v-64h1c39 47 92 71 146 71c64 0 115 -24 144 -77h2c40 51 101 77 171 77c105 0 172 -63 172 -213v-283h-131v252c0 78 -24 127 -85 127c-55 0 -100 -47 -100 -135v-244h-131v252c0 78 -26 127 -86 127c-59 0 -103 -47 -103 -135v-244h-131zM452 -69
c48 0 83 -36 83 -81c0 -44 -35 -80 -83 -80c-47 0 -83 36 -83 80c0 45 36 81 83 81z" />
    <glyph glyph-name="n" unicode="n" horiz-adv-x="588" 
d="M65 0v489h131v-63h2c39 46 95 70 156 70c104 0 177 -56 177 -206v-290h-131v257c0 93 -33 122 -94 122c-66 0 -110 -46 -110 -134v-245h-131z" />
    <glyph glyph-name="nacute" unicode="&#x144;" horiz-adv-x="588" 
d="M216 554l114 146l137 1l-124 -147h-127zM65 0v489h131v-63h2c39 46 95 70 156 70c104 0 177 -56 177 -206v-290h-131v257c0 93 -33 122 -94 122c-66 0 -110 -46 -110 -134v-245h-131z" />
    <glyph glyph-name="napostrophe" unicode="&#x149;" horiz-adv-x="691" 
d="M-17 494l32 216h124l-63 -216h-93zM167 0v489h131v-63h2c39 46 95 70 156 70c104 0 177 -56 177 -206v-290h-131v257c0 93 -33 122 -94 122c-66 0 -110 -46 -110 -134v-245h-131z" />
    <glyph glyph-name="ncaron" unicode="&#x148;" horiz-adv-x="588" 
d="M228 549l-102 147h121l50 -75h2l50 75h120l-102 -147h-139zM65 0v489h131v-63h2c39 46 95 70 156 70c104 0 177 -56 177 -206v-290h-131v257c0 93 -33 122 -94 122c-66 0 -110 -46 -110 -134v-245h-131z" />
    <glyph glyph-name="ncommaaccent" unicode="&#x146;" horiz-adv-x="588" 
d="M65 0v489h131v-63h2c39 46 95 70 156 70c104 0 177 -56 177 -206v-290h-131v257c0 93 -33 122 -94 122c-66 0 -110 -46 -110 -134v-245h-131zM228 -220l-27 74c39 11 55 25 55 55c0 13 -2 22 -7 38h113c4 -14 5 -27 5 -45c0 -78 -59 -117 -139 -122z" />
    <glyph glyph-name="uni1E45" unicode="&#x1e45;" horiz-adv-x="588" 
d="M299 555c-48 0 -83 36 -83 81c0 44 35 80 83 80c47 0 83 -36 83 -80c0 -45 -36 -81 -83 -81zM65 0v489h131v-63h2c39 46 95 70 156 70c104 0 177 -56 177 -206v-290h-131v257c0 93 -33 122 -94 122c-66 0 -110 -46 -110 -134v-245h-131z" />
    <glyph glyph-name="uni1E47" unicode="&#x1e47;" horiz-adv-x="588" 
d="M65 0v489h131v-63h2c39 46 95 70 156 70c104 0 177 -56 177 -206v-290h-131v257c0 93 -33 122 -94 122c-66 0 -110 -46 -110 -134v-245h-131zM309 -69c48 0 83 -36 83 -81c0 -44 -35 -80 -83 -80c-47 0 -83 36 -83 80c0 45 36 81 83 81z" />
    <glyph glyph-name="eng" unicode="&#x14b;" horiz-adv-x="584" 
d="M346 -206c-28 0 -54 5 -79 14l9 100c19 -6 36 -8 48 -8c54 0 72 27 72 86v271c0 93 -33 122 -94 122c-63 0 -106 -46 -106 -134v-245h-131v489h131v-63h2c38 46 91 70 152 70c105 0 178 -56 178 -206v-296c0 -137 -60 -200 -182 -200z" />
    <glyph glyph-name="uni0272" unicode="&#x272;" horiz-adv-x="588" 
d="M354 496c104 0 177 -56 177 -206v-290h-131v257c0 93 -33 122 -94 122c-66 0 -110 -46 -110 -134v-259c0 -129 -53 -192 -158 -192c-30 0 -53 5 -78 14l9 100c16 -6 30 -8 41 -8c38 0 55 27 55 78v511h131v-63h2c39 46 95 70 156 70z" />
    <glyph glyph-name="uni1E49" unicode="&#x1e49;" horiz-adv-x="588" 
d="M65 0v489h131v-63h2c39 46 95 70 156 70c104 0 177 -56 177 -206v-290h-131v257c0 93 -33 122 -94 122c-66 0 -110 -46 -110 -134v-245h-131zM462 -213h-305v105h305v-105z" />
    <glyph glyph-name="ntilde" unicode="&#xf1;" horiz-adv-x="588" 
d="M380 551c-37 0 -64 15 -88 30c-18 11 -36 21 -54 21c-26 0 -44 -20 -57 -50l-78 33c21 67 61 116 120 116c41 0 65 -14 86 -27c18 -11 35 -23 55 -23c24 0 43 20 56 50l77 -26c-20 -73 -62 -124 -117 -124zM65 0v489h131v-63h2c39 46 95 70 156 70
c104 0 177 -56 177 -206v-290h-131v257c0 93 -33 122 -94 122c-66 0 -110 -46 -110 -134v-245h-131z" />
    <glyph glyph-name="o" unicode="o" horiz-adv-x="595" 
d="M298 -9c-156 0 -260 107 -260 253s104 252 260 252c152 0 259 -102 259 -252c0 -149 -107 -253 -259 -253zM298 109c70 0 126 55 126 135s-54 135 -126 135c-76 0 -127 -58 -127 -135c0 -76 52 -135 127 -135z" />
    <glyph glyph-name="oacute" unicode="&#xf3;" horiz-adv-x="595" 
d="M232 554l114 146l137 1l-124 -147h-127zM298 -9c-156 0 -260 107 -260 253s104 252 260 252c152 0 259 -102 259 -252c0 -149 -107 -253 -259 -253zM298 109c70 0 126 55 126 135s-54 135 -126 135c-76 0 -127 -58 -127 -135c0 -76 52 -135 127 -135z" />
    <glyph glyph-name="obreve" unicode="&#x14f;" horiz-adv-x="595" 
d="M298 543c-95 0 -156 57 -163 153h99c3 -30 26 -57 64 -57c39 0 62 27 64 57h99c-7 -91 -63 -153 -163 -153zM298 -9c-156 0 -260 107 -260 253s104 252 260 252c152 0 259 -102 259 -252c0 -149 -107 -253 -259 -253zM298 109c70 0 126 55 126 135s-54 135 -126 135
c-76 0 -127 -58 -127 -135c0 -76 52 -135 127 -135z" />
    <glyph glyph-name="uni01D2" unicode="&#x1d2;" horiz-adv-x="595" 
d="M228 549l-102 147h121l50 -75h2l50 75h120l-102 -147h-139zM298 -9c-156 0 -260 107 -260 253s104 252 260 252c152 0 259 -102 259 -252c0 -149 -107 -253 -259 -253zM298 109c70 0 126 55 126 135s-54 135 -126 135c-76 0 -127 -58 -127 -135c0 -76 52 -135 127 -135z
" />
    <glyph glyph-name="ocircumflex" unicode="&#xf4;" horiz-adv-x="595" 
d="M126 551l103 147h139l101 -147h-120l-50 75h-2l-50 -75h-121zM298 -9c-156 0 -260 107 -260 253s104 252 260 252c152 0 259 -102 259 -252c0 -149 -107 -253 -259 -253zM298 109c70 0 126 55 126 135s-54 135 -126 135c-76 0 -127 -58 -127 -135c0 -76 52 -135 127 -135
z" />
    <glyph glyph-name="uni1ED1" unicode="&#x1ed1;" horiz-adv-x="595" 
d="M436 648l80 147h134l-120 -147h-94zM126 551l103 147h139l101 -147h-120l-50 75h-2l-50 -75h-121zM298 -9c-156 0 -260 107 -260 253s104 252 260 252c152 0 259 -102 259 -252c0 -149 -107 -253 -259 -253zM298 109c70 0 126 55 126 135s-54 135 -126 135
c-76 0 -127 -58 -127 -135c0 -76 52 -135 127 -135z" />
    <glyph glyph-name="uni1ED9" unicode="&#x1ed9;" horiz-adv-x="595" 
d="M126 551l103 147h139l101 -147h-120l-50 75h-2l-50 -75h-121zM298 -9c-156 0 -260 107 -260 253s104 252 260 252c152 0 259 -102 259 -252c0 -149 -107 -253 -259 -253zM298 109c70 0 126 55 126 135s-54 135 -126 135c-76 0 -127 -58 -127 -135c0 -76 52 -135 127 -135
zM298 -69c48 0 83 -36 83 -81c0 -44 -35 -80 -83 -80c-47 0 -83 36 -83 80c0 45 36 81 83 81z" />
    <glyph glyph-name="uni1ED3" unicode="&#x1ed3;" horiz-adv-x="595" 
d="M466 648l-120 147h134l79 -147h-93zM126 551l103 147h139l101 -147h-120l-50 75h-2l-50 -75h-121zM298 -9c-156 0 -260 107 -260 253s104 252 260 252c152 0 259 -102 259 -252c0 -149 -107 -253 -259 -253zM298 109c70 0 126 55 126 135s-54 135 -126 135
c-76 0 -127 -58 -127 -135c0 -76 52 -135 127 -135z" />
    <glyph glyph-name="uni1ED5" unicode="&#x1ed5;" horiz-adv-x="595" 
d="M449 651c37 27 60 54 60 76c0 12 -11 20 -28 20c-24 0 -45 -7 -74 -27l-26 56c24 24 71 52 134 52c55 0 93 -26 93 -79c0 -46 -41 -83 -79 -98h-80zM126 551l103 147h139l101 -147h-120l-50 75h-2l-50 -75h-121zM298 -9c-156 0 -260 107 -260 253s104 252 260 252
c152 0 259 -102 259 -252c0 -149 -107 -253 -259 -253zM298 109c70 0 126 55 126 135s-54 135 -126 135c-76 0 -127 -58 -127 -135c0 -76 52 -135 127 -135z" />
    <glyph glyph-name="uni1ED7" unicode="&#x1ed7;" horiz-adv-x="595" 
d="M191 732l-77 33c21 60 55 106 114 106c25 0 48 -7 78 -23c31 -19 41 -22 51 -22c25 0 41 18 54 48l78 -25c-20 -63 -59 -115 -117 -115c-28 0 -54 13 -76 26s-39 23 -57 22c-17 -2 -36 -20 -48 -50zM127 551l103 147h139l101 -147h-120l-50 75h-2l-50 -75h-121zM298 -9
c-156 0 -260 107 -260 253s104 252 260 252c152 0 259 -102 259 -252c0 -149 -107 -253 -259 -253zM298 109c70 0 126 55 126 135s-54 135 -126 135c-76 0 -127 -58 -127 -135c0 -76 52 -135 127 -135z" />
    <glyph glyph-name="odieresis" unicode="&#xf6;" horiz-adv-x="595" 
d="M192 557c-46 0 -82 36 -82 80c0 43 36 79 82 79c47 0 83 -36 83 -80s-36 -79 -83 -79zM402 557c-47 0 -82 36 -82 80c0 43 35 79 82 79c46 0 83 -36 83 -80s-37 -79 -83 -79zM298 -9c-156 0 -260 107 -260 253s104 252 260 252c152 0 259 -102 259 -252
c0 -149 -107 -253 -259 -253zM298 109c70 0 126 55 126 135s-54 135 -126 135c-76 0 -127 -58 -127 -135c0 -76 52 -135 127 -135z" />
    <glyph glyph-name="uni1ECD" unicode="&#x1ecd;" horiz-adv-x="595" 
d="M298 -9c-156 0 -260 107 -260 253s104 252 260 252c152 0 259 -102 259 -252c0 -149 -107 -253 -259 -253zM298 109c70 0 126 55 126 135s-54 135 -126 135c-76 0 -127 -58 -127 -135c0 -76 52 -135 127 -135zM298 -69c48 0 83 -36 83 -81c0 -44 -35 -80 -83 -80
c-47 0 -83 36 -83 80c0 45 36 81 83 81z" />
    <glyph glyph-name="ograve" unicode="&#xf2;" horiz-adv-x="595" 
d="M253 552l-124 146l140 -1l108 -145h-124zM298 -9c-156 0 -260 107 -260 253s104 252 260 252c152 0 259 -102 259 -252c0 -149 -107 -253 -259 -253zM298 109c70 0 126 55 126 135s-54 135 -126 135c-76 0 -127 -58 -127 -135c0 -76 52 -135 127 -135z" />
    <glyph glyph-name="uni1ECF" unicode="&#x1ecf;" horiz-adv-x="595" 
d="M257 552c40 29 65 58 64 81c0 13 -11 22 -29 22c-26 0 -48 -8 -80 -29l-27 60c25 25 76 55 143 55c59 0 99 -27 99 -84c0 -49 -44 -89 -84 -105h-86zM298 -9c-156 0 -260 107 -260 253s104 252 260 252c152 0 259 -102 259 -252c0 -149 -107 -253 -259 -253zM298 109
c70 0 126 55 126 135s-54 135 -126 135c-76 0 -127 -58 -127 -135c0 -76 52 -135 127 -135z" />
    <glyph glyph-name="ohorn" unicode="&#x1a1;" horiz-adv-x="687" 
d="M549 565h122v-73c0 -96 -44 -158 -122 -179c5 -22 8 -45 8 -69c0 -149 -107 -253 -259 -253c-156 0 -260 107 -260 253s104 252 260 252c96 0 174 -41 218 -108c32 19 33 57 33 106v71zM298 109c70 0 126 55 126 135s-54 135 -126 135c-76 0 -127 -58 -127 -135
c0 -76 52 -135 127 -135z" />
    <glyph glyph-name="uni1EDB" unicode="&#x1edb;" horiz-adv-x="687" 
d="M483 701l-124 -147h-127l114 146zM549 565h122v-73c0 -96 -44 -158 -122 -179c5 -22 8 -45 8 -69c0 -149 -107 -253 -259 -253c-156 0 -260 107 -260 253s104 252 260 252c96 0 174 -41 218 -108c32 19 33 57 33 106v71zM298 109c70 0 126 55 126 135s-54 135 -126 135
c-76 0 -127 -58 -127 -135c0 -76 52 -135 127 -135z" />
    <glyph glyph-name="uni1EE3" unicode="&#x1ee3;" horiz-adv-x="687" 
d="M549 565h122v-73c0 -96 -44 -158 -122 -179c5 -22 8 -45 8 -69c0 -149 -107 -253 -259 -253c-156 0 -260 107 -260 253s104 252 260 252c96 0 174 -41 218 -108c32 19 33 57 33 106v71zM298 109c70 0 126 55 126 135s-54 135 -126 135c-76 0 -127 -58 -127 -135
c0 -76 52 -135 127 -135zM298 -69c48 0 83 -36 83 -81c0 -44 -35 -80 -83 -80c-47 0 -83 36 -83 80c0 45 36 81 83 81z" />
    <glyph glyph-name="uni1EDD" unicode="&#x1edd;" horiz-adv-x="687" 
d="M377 552h-124l-124 146l140 -1zM549 565h122v-73c0 -96 -44 -158 -122 -179c5 -22 8 -45 8 -69c0 -149 -107 -253 -259 -253c-156 0 -260 107 -260 253s104 252 260 252c96 0 174 -41 218 -108c32 19 33 57 33 106v71zM298 109c70 0 126 55 126 135s-54 135 -126 135
c-76 0 -127 -58 -127 -135c0 -76 52 -135 127 -135z" />
    <glyph glyph-name="uni1EDF" unicode="&#x1edf;" horiz-adv-x="687" 
d="M292 655c-26 0 -48 -8 -80 -29l-27 60c25 25 76 55 143 55c59 0 99 -27 99 -84c0 -49 -44 -89 -84 -105h-86c40 29 65 58 64 81c0 13 -11 22 -29 22zM549 565h122v-73c0 -96 -44 -158 -122 -179c5 -22 8 -45 8 -69c0 -149 -107 -253 -259 -253c-156 0 -260 107 -260 253
s104 252 260 252c96 0 174 -41 218 -108c32 19 33 57 33 106v71zM298 109c70 0 126 55 126 135s-54 135 -126 135c-76 0 -127 -58 -127 -135c0 -76 52 -135 127 -135z" />
    <glyph glyph-name="uni1EE1" unicode="&#x1ee1;" horiz-adv-x="687" 
d="M238 602c-26 0 -44 -20 -57 -50l-78 33c21 67 61 116 120 116c41 0 65 -14 86 -27c18 -11 35 -23 55 -23c24 0 43 20 56 50l77 -26c-20 -73 -62 -124 -117 -124c-37 0 -64 15 -88 30c-18 11 -36 21 -54 21zM549 565h122v-73c0 -96 -44 -158 -122 -179c5 -22 8 -45 8 -69
c0 -149 -107 -253 -259 -253c-156 0 -260 107 -260 253s104 252 260 252c96 0 174 -41 218 -108c32 19 33 57 33 106v71zM298 109c70 0 126 55 126 135s-54 135 -126 135c-76 0 -127 -58 -127 -135c0 -76 52 -135 127 -135z" />
    <glyph glyph-name="ohungarumlaut" unicode="&#x151;" horiz-adv-x="595" 
d="M136 556l113 146l132 1l-124 -147h-121zM341 556l112 146l131 1l-123 -147h-120zM298 -9c-156 0 -260 107 -260 253s104 252 260 252c152 0 259 -102 259 -252c0 -149 -107 -253 -259 -253zM298 109c70 0 126 55 126 135s-54 135 -126 135c-76 0 -127 -58 -127 -135
c0 -76 52 -135 127 -135z" />
    <glyph glyph-name="omacron" unicode="&#x14d;" horiz-adv-x="595" 
d="M145 579v105h305v-105h-305zM298 -9c-156 0 -260 107 -260 253s104 252 260 252c152 0 259 -102 259 -252c0 -149 -107 -253 -259 -253zM298 109c70 0 126 55 126 135s-54 135 -126 135c-76 0 -127 -58 -127 -135c0 -76 52 -135 127 -135z" />
    <glyph glyph-name="uni01EB" unicode="&#x1eb;" horiz-adv-x="595" 
d="M332 -7c-35 -14 -55 -40 -55 -65s15 -41 41 -41c23 0 29 3 39 7l7 -72c-20 -8 -47 -11 -73 -11c-70 0 -114 37 -114 90c0 30 19 68 56 96v1c-119 25 -195 121 -195 246c0 146 104 252 260 252c152 0 259 -102 259 -252c0 -138 -91 -237 -225 -251zM171 244
c0 -76 52 -135 127 -135c70 0 126 55 126 135s-54 135 -126 135c-76 0 -127 -58 -127 -135z" />
    <glyph glyph-name="oslash" unicode="&#xf8;" horiz-adv-x="595" 
d="M560 460l-54 -58c33 -42 51 -96 51 -158c0 -149 -107 -253 -259 -253c-54 0 -101 13 -141 35l-50 -54l-59 55l47 51c-36 44 -57 101 -57 166c0 146 104 252 260 252c57 0 108 -14 149 -40l55 59zM171 244c0 -25 6 -48 16 -68l174 187c-19 10 -40 16 -63 16
c-76 0 -127 -58 -127 -135zM424 244c0 21 -4 41 -11 58l-168 -182c16 -7 33 -11 53 -11c70 0 126 55 126 135z" />
    <glyph glyph-name="oslashacute" unicode="&#x1ff;" horiz-adv-x="595" 
d="M483 701l-124 -147h-127l114 146zM560 460l-54 -58c33 -42 51 -96 51 -158c0 -149 -107 -253 -259 -253c-54 0 -101 13 -141 35l-50 -54l-59 55l47 51c-36 44 -57 101 -57 166c0 146 104 252 260 252c57 0 108 -14 149 -40l55 59zM171 244c0 -25 6 -48 16 -68l174 187
c-19 10 -40 16 -63 16c-76 0 -127 -58 -127 -135zM424 244c0 21 -4 41 -11 58l-168 -182c16 -7 33 -11 53 -11c70 0 126 55 126 135z" />
    <glyph glyph-name="otilde" unicode="&#xf5;" horiz-adv-x="595" 
d="M380 551c-37 0 -64 15 -88 30c-18 11 -36 21 -54 21c-26 0 -44 -20 -57 -50l-78 33c21 67 61 116 120 116c41 0 65 -14 86 -27c18 -11 35 -23 55 -23c24 0 43 20 56 50l77 -26c-20 -73 -62 -124 -117 -124zM298 -9c-156 0 -260 107 -260 253s104 252 260 252
c152 0 259 -102 259 -252c0 -149 -107 -253 -259 -253zM298 109c70 0 126 55 126 135s-54 135 -126 135c-76 0 -127 -58 -127 -135c0 -76 52 -135 127 -135z" />
    <glyph glyph-name="oe" unicode="&#x153;" horiz-adv-x="815" 
d="M789 249c0 -16 -2 -39 -4 -46h-305c11 -58 46 -95 111 -95c43 0 79 22 102 55l84 -80c-38 -52 -101 -92 -194 -92c-80 0 -138 28 -177 75h-2c-34 -47 -96 -75 -156 -75c-134 0 -220 97 -220 251c0 150 88 254 222 254c72 0 121 -31 153 -73h3c38 46 95 73 174 73
c126 0 209 -104 209 -247zM480 295h181c-8 53 -36 87 -84 87c-56 0 -87 -32 -97 -87zM250 108c51 0 93 56 93 136s-38 135 -89 135c-53 0 -93 -55 -93 -135c0 -83 35 -136 89 -136z" />
    <glyph glyph-name="p" unicode="p" horiz-adv-x="614" 
d="M65 -198v687h131v-56h2c35 41 87 63 147 63c132 0 231 -105 231 -253c0 -151 -99 -252 -235 -252c-61 0 -109 23 -143 64l-2 -1v-252h-131zM318 109c73 0 125 55 125 133c0 84 -56 137 -126 137c-75 0 -127 -58 -127 -137c0 -80 56 -133 128 -133z" />
    <glyph glyph-name="thorn" unicode="&#xfe;" horiz-adv-x="614" 
d="M65 -198v934h131v-302h2c36 41 87 62 147 62c132 0 231 -105 231 -253c0 -151 -99 -252 -235 -252c-61 0 -110 23 -143 63l-2 -1v-251h-131zM318 109c73 0 125 55 125 133c0 84 -56 137 -126 137c-75 0 -127 -58 -127 -137c0 -80 56 -133 128 -133z" />
    <glyph glyph-name="q" unicode="q" horiz-adv-x="611" 
d="M418 -198v253h-1c-34 -41 -83 -64 -146 -64c-134 0 -233 101 -233 252c0 148 99 253 230 253c61 0 113 -22 149 -64h1v57h131v-687h-131zM296 109c71 0 127 53 127 133c0 79 -52 137 -127 137c-70 0 -125 -53 -125 -137c0 -78 51 -133 125 -133z" />
    <glyph glyph-name="r" unicode="r" horiz-adv-x="372" 
d="M65 0v489h131v-71h2c37 50 90 78 147 78h10v-143c-14 1 -27 1 -35 1c-81 0 -124 -54 -124 -128v-226h-131z" />
    <glyph glyph-name="racute" unicode="&#x155;" horiz-adv-x="372" 
d="M116 553l114 146l137 1l-124 -147h-127zM65 0v489h131v-71h2c37 50 90 78 147 78h10v-143c-14 1 -27 1 -35 1c-81 0 -124 -54 -124 -128v-226h-131z" />
    <glyph glyph-name="rcaron" unicode="&#x159;" horiz-adv-x="372" 
d="M153 549l-102 147h121l50 -75h2l50 75h120l-102 -147h-139zM65 0v489h131v-71h2c37 50 90 78 147 78h10v-143c-14 1 -27 1 -35 1c-81 0 -124 -54 -124 -128v-226h-131z" />
    <glyph glyph-name="rcommaaccent" unicode="&#x157;" horiz-adv-x="372" 
d="M65 0v489h131v-71h2c37 50 90 78 147 78h10v-143c-14 1 -27 1 -35 1c-81 0 -124 -54 -124 -128v-226h-131zM52 -220l-27 74c39 11 55 25 55 55c0 13 -2 22 -7 38h113c4 -14 5 -27 5 -45c0 -78 -59 -117 -139 -122z" />
    <glyph glyph-name="uni1E5B" unicode="&#x1e5b;" horiz-adv-x="372" 
d="M65 0v489h131v-71h2c37 50 90 78 147 78h10v-143c-14 1 -27 1 -35 1c-81 0 -124 -54 -124 -128v-226h-131zM133 -69c48 0 83 -36 83 -81c0 -44 -35 -80 -83 -80c-47 0 -83 36 -83 80c0 45 36 81 83 81z" />
    <glyph glyph-name="uni1E5D" unicode="&#x1e5d;" horiz-adv-x="372" 
d="M70 579v105h305v-105h-305zM65 0v489h131v-71h2c37 50 90 78 147 78h10v-143c-14 1 -27 1 -35 1c-81 0 -124 -54 -124 -128v-226h-131zM133 -69c48 0 83 -36 83 -81c0 -44 -35 -80 -83 -80c-47 0 -83 36 -83 80c0 45 36 81 83 81z" />
    <glyph glyph-name="uni1E5F" unicode="&#x1e5f;" horiz-adv-x="372" 
d="M65 0v489h131v-71h2c37 50 90 78 147 78h10v-143c-14 1 -27 1 -35 1c-81 0 -124 -54 -124 -128v-226h-131zM286 -213h-305v105h305v-105z" />
    <glyph glyph-name="s" unicode="s" horiz-adv-x="445" 
d="M223 -9c-78 0 -145 26 -198 72l63 91c40 -37 82 -56 136 -56c38 0 59 16 59 40c0 21 -25 32 -88 53c-81 27 -151 65 -151 160c0 88 76 145 177 145c67 0 122 -18 178 -61l-64 -97c-37 36 -81 52 -117 52c-20 0 -46 -10 -46 -36c0 -20 24 -34 72 -52
c106 -39 168 -62 168 -159c0 -86 -61 -152 -189 -152z" />
    <glyph glyph-name="sacute" unicode="&#x15b;" horiz-adv-x="445" 
d="M143 554l114 146l137 1l-124 -147h-127zM223 -9c-78 0 -145 26 -198 72l63 91c40 -37 82 -56 136 -56c38 0 59 16 59 40c0 21 -25 32 -88 53c-81 27 -151 65 -151 160c0 88 76 145 177 145c67 0 122 -18 178 -61l-64 -97c-37 36 -81 52 -117 52c-20 0 -46 -10 -46 -36
c0 -20 24 -34 72 -52c106 -39 168 -62 168 -159c0 -86 -61 -152 -189 -152z" />
    <glyph glyph-name="scaron" unicode="&#x161;" horiz-adv-x="445" 
d="M158 549l-102 147h121l50 -75h2l50 75h120l-102 -147h-139zM223 -9c-78 0 -145 26 -198 72l63 91c40 -37 82 -56 136 -56c38 0 59 16 59 40c0 21 -25 32 -88 53c-81 27 -151 65 -151 160c0 88 76 145 177 145c67 0 122 -18 178 -61l-64 -97c-37 36 -81 52 -117 52
c-20 0 -46 -10 -46 -36c0 -20 24 -34 72 -52c106 -39 168 -62 168 -159c0 -86 -61 -152 -189 -152z" />
    <glyph glyph-name="scedilla" unicode="&#x15f;" horiz-adv-x="445" 
d="M232 -9l-10 -20v-2c65 -2 98 -31 98 -81c0 -45 -39 -79 -128 -79c-29 0 -46 3 -61 6v59c12 -4 27 -7 48 -7c22 0 48 7 48 28c0 18 -29 32 -79 32v37l15 32c-53 10 -99 33 -138 67l63 91c40 -37 82 -56 136 -56c38 0 59 16 59 40c0 21 -25 32 -88 53
c-81 27 -151 65 -151 160c0 88 76 145 177 145c67 0 122 -18 178 -61l-64 -97c-37 36 -81 52 -117 52c-20 0 -46 -10 -46 -36c0 -20 24 -34 72 -52c106 -39 168 -62 168 -159c0 -84 -58 -149 -180 -152z" />
    <glyph glyph-name="scircumflex" unicode="&#x15d;" horiz-adv-x="445" 
d="M56 551l103 147h139l101 -147h-120l-50 75h-2l-50 -75h-121zM223 -9c-78 0 -145 26 -198 72l63 91c40 -37 82 -56 136 -56c38 0 59 16 59 40c0 21 -25 32 -88 53c-81 27 -151 65 -151 160c0 88 76 145 177 145c67 0 122 -18 178 -61l-64 -97c-37 36 -81 52 -117 52
c-20 0 -46 -10 -46 -36c0 -20 24 -34 72 -52c106 -39 168 -62 168 -159c0 -86 -61 -152 -189 -152z" />
    <glyph glyph-name="scommaaccent" unicode="&#x219;" horiz-adv-x="445" 
d="M223 -9c-78 0 -145 26 -198 72l63 91c40 -37 82 -56 136 -56c38 0 59 16 59 40c0 21 -25 32 -88 53c-81 27 -151 65 -151 160c0 88 76 145 177 145c67 0 122 -18 178 -61l-64 -97c-37 36 -81 52 -117 52c-20 0 -46 -10 -46 -36c0 -20 24 -34 72 -52
c106 -39 168 -62 168 -159c0 -86 -61 -152 -189 -152zM145 -220l-27 74c39 11 55 25 55 55c0 13 -2 22 -7 38h113c4 -14 5 -27 5 -45c0 -78 -59 -117 -139 -122z" />
    <glyph glyph-name="uni1E61" unicode="&#x1e61;" horiz-adv-x="445" 
d="M229 555c-48 0 -83 36 -83 81c0 44 35 80 83 80c47 0 83 -36 83 -80c0 -45 -36 -81 -83 -81zM223 -9c-78 0 -145 26 -198 72l63 91c40 -37 82 -56 136 -56c38 0 59 16 59 40c0 21 -25 32 -88 53c-81 27 -151 65 -151 160c0 88 76 145 177 145c67 0 122 -18 178 -61
l-64 -97c-37 36 -81 52 -117 52c-20 0 -46 -10 -46 -36c0 -20 24 -34 72 -52c106 -39 168 -62 168 -159c0 -86 -61 -152 -189 -152z" />
    <glyph glyph-name="uni1E63" unicode="&#x1e63;" horiz-adv-x="445" 
d="M223 -9c-78 0 -145 26 -198 72l63 91c40 -37 82 -56 136 -56c38 0 59 16 59 40c0 21 -25 32 -88 53c-81 27 -151 65 -151 160c0 88 76 145 177 145c67 0 122 -18 178 -61l-64 -97c-37 36 -81 52 -117 52c-20 0 -46 -10 -46 -36c0 -20 24 -34 72 -52
c106 -39 168 -62 168 -159c0 -86 -61 -152 -189 -152zM226 -69c48 0 83 -36 83 -81c0 -44 -35 -80 -83 -80c-47 0 -83 36 -83 80c0 45 36 81 83 81z" />
    <glyph glyph-name="germandbls" unicode="&#xdf;" horiz-adv-x="634" 
d="M282 -9v117h64c73 0 124 50 124 118s-50 124 -135 124h-40v110h34c85 0 103 59 103 87c0 43 -35 83 -108 83c-79 0 -127 -37 -127 -139v-491h-132v485c0 176 95 260 256 260c159 0 239 -86 239 -185c0 -45 -17 -101 -77 -137v-2c75 -35 120 -112 120 -199
c0 -141 -90 -231 -225 -231h-96z" />
    <glyph glyph-name="longs" unicode="&#x17f;" horiz-adv-x="340" 
d="M82 0v380h-51v109h51v83c0 114 57 173 154 173c59 0 104 -21 126 -36l-27 -102c-27 13 -54 22 -72 22c-31 0 -49 -19 -49 -66v-563h-132z" />
    <glyph glyph-name="t" unicode="t" horiz-adv-x="369" 
d="M216 -9c-84 0 -139 53 -139 163v226h-58v109h58v159l131 14v-173h132v-109h-132v-207c0 -43 11 -63 42 -63c16 0 40 6 62 17l33 -105c-31 -17 -63 -31 -129 -31z" />
    <glyph glyph-name="tbar" unicode="&#x167;" horiz-adv-x="369" 
d="M312 127l33 -105c-31 -17 -63 -31 -129 -31c-84 0 -139 53 -139 163v66h-50v84h50v76h-58v109h58v159l131 14v-173h132v-109h-132v-76h108v-84h-108v-47c0 -43 11 -63 42 -63c16 0 40 6 62 17z" />
    <glyph glyph-name="tcaron" unicode="&#x165;" horiz-adv-x="368" 
d="M261 580l31 206h125l-63 -206h-93zM216 -9c-84 0 -139 53 -139 163v226h-58v109h58v159l131 14v-173h132v-109h-132v-207c0 -43 11 -63 42 -63c16 0 40 6 62 17l33 -105c-31 -17 -63 -31 -129 -31z" />
    <glyph glyph-name="uni0163" unicode="&#x163;" horiz-adv-x="369" 
d="M208 -31c65 -2 98 -31 98 -81c0 -45 -39 -79 -128 -79c-29 0 -46 3 -61 6v59c12 -4 27 -7 48 -7c22 0 48 7 48 28c0 18 -29 32 -79 32v37l19 40c-47 21 -76 71 -76 150v226h-58v109h58v159l131 14v-173h132v-109h-132v-207c0 -43 11 -63 42 -63c16 0 40 6 62 17l33 -105
c-31 -17 -62 -31 -127 -31l-10 -20v-2z" />
    <glyph glyph-name="uni021B" unicode="&#x21b;" horiz-adv-x="369" 
d="M216 -9c-84 0 -139 53 -139 163v226h-58v109h58v159l131 14v-173h132v-109h-132v-207c0 -43 11 -63 42 -63c16 0 40 6 62 17l33 -105c-31 -17 -63 -31 -129 -31zM131 -220l-27 74c39 11 55 25 55 55c0 13 -2 22 -7 38h113c4 -14 5 -27 5 -45c0 -78 -59 -117 -139 -122z
" />
    <glyph glyph-name="uni1E97" unicode="&#x1e97;" horiz-adv-x="369" 
d="M78 705c-46 0 -82 36 -82 80c0 43 36 79 82 79c47 0 83 -36 83 -80s-36 -79 -83 -79zM288 705c-47 0 -82 36 -82 80c0 43 35 79 82 79c46 0 83 -36 83 -80s-37 -79 -83 -79zM216 -9c-84 0 -139 53 -139 163v226h-58v109h58v159l131 14v-173h132v-109h-132v-207
c0 -43 11 -63 42 -63c16 0 40 6 62 17l33 -105c-31 -17 -63 -31 -129 -31z" />
    <glyph glyph-name="uni1E6D" unicode="&#x1e6d;" horiz-adv-x="369" 
d="M216 -9c-84 0 -139 53 -139 163v226h-58v109h58v159l131 14v-173h132v-109h-132v-207c0 -43 11 -63 42 -63c16 0 40 6 62 17l33 -105c-31 -17 -63 -31 -129 -31zM212 -69c48 0 83 -36 83 -81c0 -44 -35 -80 -83 -80c-47 0 -83 36 -83 80c0 45 36 81 83 81z" />
    <glyph glyph-name="uni1E6F" unicode="&#x1e6f;" horiz-adv-x="369" 
d="M216 -9c-84 0 -139 53 -139 163v226h-58v109h58v159l131 14v-173h132v-109h-132v-207c0 -43 11 -63 42 -63c16 0 40 6 62 17l33 -105c-31 -17 -63 -31 -129 -31zM365 -213h-305v105h305v-105z" />
    <glyph glyph-name="u" unicode="u" horiz-adv-x="575" 
d="M236 -9c-106 0 -180 54 -180 203v295h130v-261c0 -89 27 -119 88 -119c57 0 108 48 108 142v238h132v-489h-132v58l-2 1c-37 -45 -89 -68 -144 -68z" />
    <glyph glyph-name="uacute" unicode="&#xfa;" horiz-adv-x="575" 
d="M219 554l114 146l137 1l-124 -147h-127zM236 -9c-106 0 -180 54 -180 203v295h130v-261c0 -89 27 -119 88 -119c57 0 108 48 108 142v238h132v-489h-132v58l-2 1c-37 -45 -89 -68 -144 -68z" />
    <glyph glyph-name="ubreve" unicode="&#x16d;" horiz-adv-x="575" 
d="M286 543c-95 0 -156 57 -163 153h99c3 -30 26 -57 64 -57c39 0 62 27 64 57h99c-7 -91 -63 -153 -163 -153zM236 -9c-106 0 -180 54 -180 203v295h130v-261c0 -89 27 -119 88 -119c57 0 108 48 108 142v238h132v-489h-132v58l-2 1c-37 -45 -89 -68 -144 -68z" />
    <glyph glyph-name="ucircumflex" unicode="&#xfb;" horiz-adv-x="575" 
d="M114 551l103 147h139l101 -147h-120l-50 75h-2l-50 -75h-121zM236 -9c-106 0 -180 54 -180 203v295h130v-261c0 -89 27 -119 88 -119c57 0 108 48 108 142v238h132v-489h-132v58l-2 1c-37 -45 -89 -68 -144 -68z" />
    <glyph glyph-name="udieresis" unicode="&#xfc;" horiz-adv-x="575" 
d="M180 557c-46 0 -82 36 -82 80c0 43 36 79 82 79c47 0 83 -36 83 -80s-36 -79 -83 -79zM390 557c-47 0 -82 36 -82 80c0 43 35 79 82 79c46 0 83 -36 83 -80s-37 -79 -83 -79zM236 -9c-106 0 -180 54 -180 203v295h130v-261c0 -89 27 -119 88 -119c57 0 108 48 108 142
v238h132v-489h-132v58l-2 1c-37 -45 -89 -68 -144 -68z" />
    <glyph glyph-name="uni1EE5" unicode="&#x1ee5;" horiz-adv-x="575" 
d="M236 -9c-106 0 -180 54 -180 203v295h130v-261c0 -89 27 -119 88 -119c57 0 108 48 108 142v238h132v-489h-132v58l-2 1c-37 -45 -89 -68 -144 -68zM292 -69c48 0 83 -36 83 -81c0 -44 -35 -80 -83 -80c-47 0 -83 36 -83 80c0 45 36 81 83 81z" />
    <glyph glyph-name="ugrave" unicode="&#xf9;" horiz-adv-x="575" 
d="M244 552l-124 146l140 -1l108 -145h-124zM236 -9c-106 0 -180 54 -180 203v295h130v-261c0 -89 27 -119 88 -119c57 0 108 48 108 142v238h132v-489h-132v58l-2 1c-37 -45 -89 -68 -144 -68z" />
    <glyph glyph-name="uni1EE7" unicode="&#x1ee7;" horiz-adv-x="575" 
d="M245 552c40 29 65 58 64 81c0 13 -11 22 -29 22c-26 0 -48 -8 -80 -29l-27 60c25 25 76 55 143 55c59 0 99 -27 99 -84c0 -49 -44 -89 -84 -105h-86zM236 -9c-106 0 -180 54 -180 203v295h130v-261c0 -89 27 -119 88 -119c57 0 108 48 108 142v238h132v-489h-132v58l-2 1
c-37 -45 -89 -68 -144 -68z" />
    <glyph glyph-name="uhorn" unicode="&#x1b0;" horiz-adv-x="699" 
d="M566 565h122v-73c0 -116 -63 -182 -174 -187v-305h-132v58l-2 1c-37 -45 -89 -68 -144 -68c-106 0 -180 54 -180 203v295h130v-261c0 -89 27 -119 88 -119c57 0 108 48 108 142v238h132v-109c50 14 52 57 52 114v71z" />
    <glyph glyph-name="uni1EE9" unicode="&#x1ee9;" horiz-adv-x="699" 
d="M470 701l-124 -147h-127l114 146zM566 565h122v-73c0 -116 -63 -182 -174 -187v-305h-132v58l-2 1c-37 -45 -89 -68 -144 -68c-106 0 -180 54 -180 203v295h130v-261c0 -89 27 -119 88 -119c57 0 108 48 108 142v238h132v-109c50 14 52 57 52 114v71z" />
    <glyph glyph-name="uni1EF1" unicode="&#x1ef1;" horiz-adv-x="699" 
d="M566 565h122v-73c0 -116 -63 -182 -174 -187v-305h-132v58l-2 1c-37 -45 -89 -68 -144 -68c-106 0 -180 54 -180 203v295h130v-261c0 -89 27 -119 88 -119c57 0 108 48 108 142v238h132v-109c50 14 52 57 52 114v71zM292 -69c48 0 83 -36 83 -81c0 -44 -35 -80 -83 -80
c-47 0 -83 36 -83 80c0 45 36 81 83 81z" />
    <glyph glyph-name="uni1EEB" unicode="&#x1eeb;" horiz-adv-x="699" 
d="M368 552h-124l-124 146l140 -1zM566 565h122v-73c0 -116 -63 -182 -174 -187v-305h-132v58l-2 1c-37 -45 -89 -68 -144 -68c-106 0 -180 54 -180 203v295h130v-261c0 -89 27 -119 88 -119c57 0 108 48 108 142v238h132v-109c50 14 52 57 52 114v71z" />
    <glyph glyph-name="uni1EED" unicode="&#x1eed;" horiz-adv-x="699" 
d="M280 655c-26 0 -48 -8 -80 -29l-27 60c25 25 76 55 143 55c59 0 99 -27 99 -84c0 -49 -44 -89 -84 -105h-86c40 29 65 58 64 81c0 13 -11 22 -29 22zM566 565h122v-73c0 -116 -63 -182 -174 -187v-305h-132v58l-2 1c-37 -45 -89 -68 -144 -68c-106 0 -180 54 -180 203
v295h130v-261c0 -89 27 -119 88 -119c57 0 108 48 108 142v238h132v-109c50 14 52 57 52 114v71z" />
    <glyph glyph-name="uni1EEF" unicode="&#x1eef;" horiz-adv-x="699" 
d="M226 602c-26 0 -44 -20 -57 -50l-78 33c21 67 61 116 120 116c41 0 65 -14 86 -27c18 -11 35 -23 55 -23c24 0 43 20 56 50l77 -26c-20 -73 -62 -124 -117 -124c-37 0 -64 15 -88 30c-18 11 -36 21 -54 21zM566 565h122v-73c0 -116 -63 -182 -174 -187v-305h-132v58l-2 1
c-37 -45 -89 -68 -144 -68c-106 0 -180 54 -180 203v295h130v-261c0 -89 27 -119 88 -119c57 0 108 48 108 142v238h132v-109c50 14 52 57 52 114v71z" />
    <glyph glyph-name="uhungarumlaut" unicode="&#x171;" horiz-adv-x="575" 
d="M124 556l113 146l132 1l-124 -147h-121zM329 556l112 146l131 1l-123 -147h-120zM236 -9c-106 0 -180 54 -180 203v295h130v-261c0 -89 27 -119 88 -119c57 0 108 48 108 142v238h132v-489h-132v58l-2 1c-37 -45 -89 -68 -144 -68z" />
    <glyph glyph-name="umacron" unicode="&#x16b;" horiz-adv-x="575" 
d="M133 579v105h305v-105h-305zM236 -9c-106 0 -180 54 -180 203v295h130v-261c0 -89 27 -119 88 -119c57 0 108 48 108 142v238h132v-489h-132v58l-2 1c-37 -45 -89 -68 -144 -68z" />
    <glyph glyph-name="uni01D4" unicode="&#x1d4;" horiz-adv-x="575" 
d="M216 549l-102 147h121l50 -75h2l50 75h120l-102 -147h-139zM236 -9c-106 0 -180 54 -180 203v295h130v-261c0 -89 27 -119 88 -119c57 0 108 48 108 142v238h132v-489h-132v58l-2 1c-37 -45 -89 -68 -144 -68z" />
    <glyph glyph-name="uni01D6" unicode="&#x1d6;" horiz-adv-x="575" 
d="M133 750v92h305v-92h-305zM188 556c-45 0 -79 33 -79 75c0 41 34 74 79 74s80 -33 80 -74c0 -43 -35 -75 -80 -75zM388 556c-45 0 -79 33 -79 75c0 41 34 74 79 74s80 -33 80 -74c0 -43 -35 -75 -80 -75zM236 -9c-106 0 -180 54 -180 203v295h130v-261
c0 -89 27 -119 88 -119c57 0 108 48 108 142v238h132v-489h-132v58l-2 1c-37 -45 -89 -68 -144 -68z" />
    <glyph glyph-name="uni01D8" unicode="&#x1d8;" horiz-adv-x="575" 
d="M234 727l113 141l134 1l-149 -142h-98zM186 557c-45 0 -79 33 -79 75c0 41 34 74 79 74s80 -33 80 -74c0 -43 -35 -75 -80 -75zM386 557c-45 0 -79 33 -79 75c0 41 34 74 79 74s80 -33 80 -74c0 -43 -35 -75 -80 -75zM236 -9c-106 0 -180 54 -180 203v295h130v-261
c0 -89 27 -119 88 -119c57 0 108 48 108 142v238h132v-489h-132v58l-2 1c-37 -45 -89 -68 -144 -68z" />
    <glyph glyph-name="uni01DA" unicode="&#x1da;" horiz-adv-x="575" 
d="M217 728l-102 143h121l50 -73h2l50 73h120l-102 -143h-139zM186 557c-45 0 -79 33 -79 75c0 41 34 74 79 74s80 -33 80 -74c0 -43 -35 -75 -80 -75zM386 557c-45 0 -79 33 -79 75c0 41 34 74 79 74s80 -33 80 -74c0 -43 -35 -75 -80 -75zM236 -9c-106 0 -180 54 -180 203
v295h130v-261c0 -89 27 -119 88 -119c57 0 108 48 108 142v238h132v-489h-132v58l-2 1c-37 -45 -89 -68 -144 -68z" />
    <glyph glyph-name="uni01DC" unicode="&#x1dc;" horiz-adv-x="575" 
d="M341 727h-98l-149 142l134 -1zM186 557c-45 0 -79 33 -79 75c0 41 34 74 79 74s80 -33 80 -74c0 -43 -35 -75 -80 -75zM386 557c-45 0 -79 33 -79 75c0 41 34 74 79 74s80 -33 80 -74c0 -43 -35 -75 -80 -75zM236 -9c-106 0 -180 54 -180 203v295h130v-261
c0 -89 27 -119 88 -119c57 0 108 48 108 142v238h132v-489h-132v58l-2 1c-37 -45 -89 -68 -144 -68z" />
    <glyph glyph-name="uni0251" unicode="&#x251;" horiz-adv-x="604" 
d="M270 -9c-134 0 -233 101 -233 252c0 148 99 253 230 253c57 0 109 -22 144 -64l2 1v56h131v-489h-125v58l-2 1c-34 -44 -83 -68 -147 -68zM295 109c67 0 124 53 124 133c0 79 -54 137 -124 137c-71 0 -125 -53 -125 -137c0 -78 51 -133 125 -133z" />
    <glyph glyph-name="uni0261" unicode="&#x261;" horiz-adv-x="602" 
d="M286 -206c-75 0 -142 16 -200 49l31 111c48 -27 95 -46 159 -46c91 0 137 50 137 108v49h-2c-35 -36 -84 -56 -142 -56c-134 0 -233 98 -233 240c0 144 96 247 226 247c54 0 107 -19 147 -58h2v51h131v-433c0 -153 -67 -262 -256 -262zM293 127c72 0 123 53 123 127
s-53 124 -123 124c-73 0 -124 -51 -124 -125c0 -77 54 -126 124 -126z" />
    <glyph glyph-name="uni1E31" unicode="&#x1e31;" horiz-adv-x="536" 
d="M65 0v736h130v-452h2l174 205h154l-171 -196l175 -293h-147l-121 205l-66 -72v-133h-130zM246 553l114 146l137 1l-124 -147h-127z" />
    <glyph glyph-name="uogonek" unicode="&#x173;" horiz-adv-x="575" 
d="M499 0c-51 -9 -81 -41 -81 -72c0 -25 15 -41 41 -41c23 0 29 3 39 7l7 -72c-20 -8 -47 -11 -73 -11c-70 0 -114 37 -114 90c0 32 21 73 64 101v56l-2 1c-37 -45 -89 -68 -144 -68c-106 0 -180 54 -180 203v295h130v-261c0 -89 27 -119 88 -119c57 0 108 48 108 142v238
h132v-489h-15z" />
    <glyph glyph-name="uring" unicode="&#x16f;" horiz-adv-x="575" 
d="M286 539c-59 0 -109 44 -109 105c0 58 45 106 109 106c60 0 109 -45 109 -106c0 -57 -44 -105 -109 -105zM286 608c21 0 37 17 37 38c0 20 -16 36 -37 36s-37 -17 -37 -37c0 -21 16 -37 37 -37zM236 -9c-106 0 -180 54 -180 203v295h130v-261c0 -89 27 -119 88 -119
c57 0 108 48 108 142v238h132v-489h-132v58l-2 1c-37 -45 -89 -68 -144 -68z" />
    <glyph glyph-name="utilde" unicode="&#x169;" horiz-adv-x="575" 
d="M368 551c-37 0 -64 15 -88 30c-18 11 -36 21 -54 21c-26 0 -44 -20 -57 -50l-78 33c21 67 61 116 120 116c41 0 65 -14 86 -27c18 -11 35 -23 55 -23c24 0 43 20 56 50l77 -26c-20 -73 -62 -124 -117 -124zM236 -9c-106 0 -180 54 -180 203v295h130v-261
c0 -89 27 -119 88 -119c57 0 108 48 108 142v238h132v-489h-132v58l-2 1c-37 -45 -89 -68 -144 -68z" />
    <glyph glyph-name="v" unicode="v" horiz-adv-x="537" 
d="M207 0l-192 489h140l113 -328h1l115 328h137l-192 -489h-122z" />
    <glyph glyph-name="w" unicode="w" horiz-adv-x="769" 
d="M183 0l-165 489h132l94 -299h1l87 299h105l88 -299h2l93 299h131l-166 -489h-113l-88 297h-1l-87 -297h-113z" />
    <glyph glyph-name="wacute" unicode="&#x1e83;" horiz-adv-x="769" 
d="M321 554l114 146l137 1l-124 -147h-127zM183 0l-165 489h132l94 -299h1l87 299h105l88 -299h2l93 299h131l-166 -489h-113l-88 297h-1l-87 -297h-113z" />
    <glyph glyph-name="wcircumflex" unicode="&#x175;" horiz-adv-x="769" 
d="M212 551l103 147h139l101 -147h-120l-50 75h-2l-50 -75h-121zM183 0l-165 489h132l94 -299h1l87 299h105l88 -299h2l93 299h131l-166 -489h-113l-88 297h-1l-87 -297h-113z" />
    <glyph glyph-name="wdieresis" unicode="&#x1e85;" horiz-adv-x="769" 
d="M278 557c-46 0 -82 36 -82 80c0 43 36 79 82 79c47 0 83 -36 83 -80s-36 -79 -83 -79zM488 557c-47 0 -82 36 -82 80c0 43 35 79 82 79c46 0 83 -36 83 -80s-37 -79 -83 -79zM183 0l-165 489h132l94 -299h1l87 299h105l88 -299h2l93 299h131l-166 -489h-113l-88 297h-1
l-87 -297h-113z" />
    <glyph glyph-name="wgrave" unicode="&#x1e81;" horiz-adv-x="769" 
d="M322 552l-124 146l140 -1l108 -145h-124zM183 0l-165 489h132l94 -299h1l87 299h105l88 -299h2l93 299h131l-166 -489h-113l-88 297h-1l-87 -297h-113z" />
    <glyph glyph-name="x" unicode="x" horiz-adv-x="526" 
d="M20 0l169 250l-168 239h150l90 -140h2l91 140h149l-167 -240l170 -249h-144l-98 140h-2l-100 -140h-142z" />
    <glyph glyph-name="y" unicode="y" horiz-adv-x="536" 
d="M124 -198l87 228l-196 459h140l119 -300h2l111 300h133l-263 -687h-133z" />
    <glyph glyph-name="yacute" unicode="&#xfd;" horiz-adv-x="536" 
d="M187 554l114 146l137 1l-124 -147h-127zM124 -198l87 228l-196 459h140l119 -300h2l111 300h133l-263 -687h-133z" />
    <glyph glyph-name="ycircumflex" unicode="&#x177;" horiz-adv-x="536" 
d="M97 551l103 147h139l101 -147h-120l-50 75h-2l-50 -75h-121zM124 -198l87 228l-196 459h140l119 -300h2l111 300h133l-263 -687h-133z" />
    <glyph glyph-name="ydieresis" unicode="&#xff;" horiz-adv-x="536" 
d="M163 557c-46 0 -82 36 -82 80c0 43 36 79 82 79c47 0 83 -36 83 -80s-36 -79 -83 -79zM373 557c-47 0 -82 36 -82 80c0 43 35 79 82 79c46 0 83 -36 83 -80s-37 -79 -83 -79zM124 -198l87 228l-196 459h140l119 -300h2l111 300h133l-263 -687h-133z" />
    <glyph glyph-name="uni1E8F" unicode="&#x1e8f;" horiz-adv-x="536" 
d="M270 555c-48 0 -83 36 -83 81c0 44 35 80 83 80c47 0 83 -36 83 -80c0 -45 -36 -81 -83 -81zM124 -198l87 228l-196 459h140l119 -300h2l111 300h133l-263 -687h-133z" />
    <glyph glyph-name="uni1EF5" unicode="&#x1ef5;" horiz-adv-x="536" 
d="M124 -198l87 228l-196 459h140l119 -300h2l111 300h133l-263 -687h-133zM415 -69c48 0 83 -36 83 -81c0 -44 -35 -80 -83 -80c-47 0 -83 36 -83 80c0 45 36 81 83 81z" />
    <glyph glyph-name="ygrave" unicode="&#x1ef3;" horiz-adv-x="536" 
d="M223 552l-124 146l140 -1l108 -145h-124zM124 -198l87 228l-196 459h140l119 -300h2l111 300h133l-263 -687h-133z" />
    <glyph glyph-name="uni1EF7" unicode="&#x1ef7;" horiz-adv-x="536" 
d="M228 552c40 29 65 58 64 81c0 13 -11 22 -29 22c-26 0 -48 -8 -80 -29l-27 60c25 25 76 55 143 55c59 0 99 -27 99 -84c0 -49 -44 -89 -84 -105h-86zM124 -198l87 228l-196 459h140l119 -300h2l111 300h133l-263 -687h-133z" />
    <glyph glyph-name="uni0233" unicode="&#x233;" horiz-adv-x="536" 
d="M116 579v105h305v-105h-305zM124 -198l87 228l-196 459h140l119 -300h2l111 300h133l-263 -687h-133z" />
    <glyph glyph-name="uni1EF9" unicode="&#x1ef9;" horiz-adv-x="536" 
d="M351 551c-37 0 -64 15 -88 30c-18 11 -36 21 -54 21c-26 0 -44 -20 -57 -50l-78 33c21 67 61 116 120 116c41 0 65 -14 86 -27c18 -11 35 -23 55 -23c24 0 43 20 56 50l77 -26c-20 -73 -62 -124 -117 -124zM124 -198l87 228l-196 459h140l119 -300h2l111 300h133
l-263 -687h-133z" />
    <glyph glyph-name="z" unicode="z" horiz-adv-x="484" 
d="M35 0v90l235 288l-1 3h-216v108h394v-89l-238 -290l1 -2h231v-108h-406z" />
    <glyph glyph-name="zacute" unicode="&#x17a;" horiz-adv-x="484" 
d="M159 554l114 146l137 1l-124 -147h-127zM35 0v90l235 288l-1 3h-216v108h394v-89l-238 -290l1 -2h231v-108h-406z" />
    <glyph glyph-name="zcaron" unicode="&#x17e;" horiz-adv-x="484" 
d="M174 549l-102 147h121l50 -75h2l50 75h120l-102 -147h-139zM35 0v90l235 288l-1 3h-216v108h394v-89l-238 -290l1 -2h231v-108h-406z" />
    <glyph glyph-name="zdotaccent" unicode="&#x17c;" horiz-adv-x="484" 
d="M245 555c-48 0 -83 36 -83 81c0 44 35 80 83 80c47 0 83 -36 83 -80c0 -45 -36 -81 -83 -81zM35 0v90l235 288l-1 3h-216v108h394v-89l-238 -290l1 -2h231v-108h-406z" />
    <glyph glyph-name="uni1E93" unicode="&#x1e93;" horiz-adv-x="484" 
d="M35 0v90l235 288l-1 3h-216v108h394v-89l-238 -290l1 -2h231v-108h-406zM244 -69c48 0 83 -36 83 -81c0 -44 -35 -80 -83 -80c-47 0 -83 36 -83 80c0 45 36 81 83 81z" />
    <glyph glyph-name="a.alt" horiz-adv-x="511" 
d="M248 496c144 0 211 -59 211 -206v-290h-121l-5 43l-2 1c-33 -30 -80 -53 -136 -53c-104 0 -163 66 -163 155c0 98 62 157 196 157h103c-1 60 -28 83 -95 83c-42 0 -88 -12 -125 -34l-50 99c49 25 130 45 187 45zM226 92c67 0 105 35 105 70v52h-98c-52 0 -75 -23 -75 -61
s23 -61 68 -61z" />
    <glyph glyph-name="aacute.alt" horiz-adv-x="511" 
d="M437 697l-124 -147h-127l114 146zM248 496c144 0 211 -59 211 -206v-290h-121l-5 43l-2 1c-33 -30 -80 -53 -136 -53c-104 0 -163 66 -163 155c0 98 62 157 196 157h103c-1 60 -28 83 -95 83c-42 0 -88 -12 -125 -34l-50 99c49 25 130 45 187 45zM226 92
c67 0 105 35 105 70v52h-98c-52 0 -75 -23 -75 -61s23 -61 68 -61z" />
    <glyph glyph-name="abreve.alt" horiz-adv-x="511" 
d="M261 543c-95 0 -156 57 -163 153h99c3 -30 26 -57 64 -57c39 0 62 27 64 57h99c-7 -91 -63 -153 -163 -153zM248 496c144 0 211 -59 211 -206v-290h-121l-5 43l-2 1c-33 -30 -80 -53 -136 -53c-104 0 -163 66 -163 155c0 98 62 157 196 157h103c-1 60 -28 83 -95 83
c-42 0 -88 -12 -125 -34l-50 99c49 25 130 45 187 45zM226 92c67 0 105 35 105 70v52h-98c-52 0 -75 -23 -75 -61s23 -61 68 -61z" />
    <glyph glyph-name="uni1EAF.alt" horiz-adv-x="511" 
d="M424 859l-120 -147h-93l79 147h134zM261 543c-95 0 -156 57 -163 153h99c3 -30 26 -57 64 -57c39 0 62 27 64 57h99c-7 -91 -63 -153 -163 -153zM248 496c144 0 211 -59 211 -206v-290h-121l-5 43l-2 1c-33 -30 -80 -53 -136 -53c-104 0 -163 66 -163 155
c0 98 62 157 196 157h103c-1 60 -28 83 -95 83c-42 0 -88 -12 -125 -34l-50 99c49 25 130 45 187 45zM226 92c67 0 105 35 105 70v52h-98c-52 0 -75 -23 -75 -61s23 -61 68 -61z" />
    <glyph glyph-name="uni1EB7.alt" horiz-adv-x="511" 
d="M261 543c-95 0 -156 57 -163 153h99c3 -30 26 -57 64 -57c39 0 62 27 64 57h99c-7 -91 -63 -153 -163 -153zM248 496c144 0 211 -59 211 -206v-290h-121l-5 43l-2 1c-33 -30 -80 -53 -136 -53c-104 0 -163 66 -163 155c0 98 62 157 196 157h103c-1 60 -28 83 -95 83
c-42 0 -88 -12 -125 -34l-50 99c49 25 130 45 187 45zM226 92c67 0 105 35 105 70v52h-98c-52 0 -75 -23 -75 -61s23 -61 68 -61zM261 -69c48 0 83 -36 83 -81c0 -44 -35 -80 -83 -80c-47 0 -83 36 -83 80c0 45 36 81 83 81z" />
    <glyph glyph-name="uni1EB1.alt" horiz-adv-x="511" 
d="M313 712h-93l-121 147h135zM261 543c-95 0 -156 57 -163 153h99c3 -30 26 -57 64 -57c39 0 62 27 64 57h99c-7 -91 -63 -153 -163 -153zM248 496c144 0 211 -59 211 -206v-290h-121l-5 43l-2 1c-33 -30 -80 -53 -136 -53c-104 0 -163 66 -163 155c0 98 62 157 196 157
h103c-1 60 -28 83 -95 83c-42 0 -88 -12 -125 -34l-50 99c49 25 130 45 187 45zM226 92c67 0 105 35 105 70v52h-98c-52 0 -75 -23 -75 -61s23 -61 68 -61z" />
    <glyph glyph-name="uni1EB3.alt" horiz-adv-x="511" 
d="M246 794c-24 0 -45 -7 -74 -27l-26 56c24 24 71 52 134 52c55 0 93 -26 93 -79c0 -46 -41 -83 -79 -98h-80c37 27 60 54 60 76c0 12 -11 20 -28 20zM261 544c-98 0 -161 54 -169 144h103c3 -28 27 -54 66 -54c40 0 64 26 66 54h103c-8 -86 -66 -144 -169 -144zM248 496
c144 0 211 -59 211 -206v-290h-121l-5 43l-2 1c-33 -30 -80 -53 -136 -53c-104 0 -163 66 -163 155c0 98 62 157 196 157h103c-1 60 -28 83 -95 83c-42 0 -88 -12 -125 -34l-50 99c49 25 130 45 187 45zM226 92c67 0 105 35 105 70v52h-98c-52 0 -75 -23 -75 -61
s23 -61 68 -61z" />
    <glyph glyph-name="uni1EB5.alt" horiz-adv-x="511" 
d="M200 778c-17 -2 -36 -20 -48 -50l-77 33c21 60 55 106 114 106c25 0 48 -7 78 -23c31 -19 41 -22 51 -22c25 0 41 18 54 48l78 -25c-20 -63 -59 -115 -117 -115c-28 0 -54 13 -76 26s-39 23 -57 22zM260 639c39 0 62 27 64 57h99c-7 -91 -63 -153 -163 -153
c-95 0 -156 57 -163 153h99c3 -30 26 -57 64 -57zM248 496c144 0 211 -59 211 -206v-290h-121l-5 43l-2 1c-33 -30 -80 -53 -136 -53c-104 0 -163 66 -163 155c0 98 62 157 196 157h103c-1 60 -28 83 -95 83c-42 0 -88 -12 -125 -34l-50 99c49 25 130 45 187 45zM226 92
c67 0 105 35 105 70v52h-98c-52 0 -75 -23 -75 -61s23 -61 68 -61z" />
    <glyph glyph-name="uni01CE.alt" horiz-adv-x="511" 
d="M330 549h-139l-102 147h121l50 -75h2l50 75h120zM248 496c144 0 211 -59 211 -206v-290h-121l-5 43l-2 1c-33 -30 -80 -53 -136 -53c-104 0 -163 66 -163 155c0 98 62 157 196 157h103c-1 60 -28 83 -95 83c-42 0 -88 -12 -125 -34l-50 99c49 25 130 45 187 45zM226 92
c67 0 105 35 105 70v52h-98c-52 0 -75 -23 -75 -61s23 -61 68 -61z" />
    <glyph glyph-name="acircumflex.alt" horiz-adv-x="511" 
d="M260 626l-50 -75h-121l103 147h139l101 -147h-120l-50 75h-2zM248 496c144 0 211 -59 211 -206v-290h-121l-5 43l-2 1c-33 -30 -80 -53 -136 -53c-104 0 -163 66 -163 155c0 98 62 157 196 157h103c-1 60 -28 83 -95 83c-42 0 -88 -12 -125 -34l-50 99
c49 25 130 45 187 45zM226 92c67 0 105 35 105 70v52h-98c-52 0 -75 -23 -75 -61s23 -61 68 -61z" />
    <glyph glyph-name="uni1EA5.alt" horiz-adv-x="511" 
d="M479 795h134l-120 -147h-94zM260 626l-50 -75h-121l103 147h139l101 -147h-120l-50 75h-2zM248 496c144 0 211 -59 211 -206v-290h-121l-5 43l-2 1c-33 -30 -80 -53 -136 -53c-104 0 -163 66 -163 155c0 98 62 157 196 157h103c-1 60 -28 83 -95 83
c-42 0 -88 -12 -125 -34l-50 99c49 25 130 45 187 45zM226 92c67 0 105 35 105 70v52h-98c-52 0 -75 -23 -75 -61s23 -61 68 -61z" />
    <glyph glyph-name="uni1EAD.alt" horiz-adv-x="511" 
d="M260 626l-50 -75h-121l103 147h139l101 -147h-120l-50 75h-2zM248 496c144 0 211 -59 211 -206v-290h-121l-5 43l-2 1c-33 -30 -80 -53 -136 -53c-104 0 -163 66 -163 155c0 98 62 157 196 157h103c-1 60 -28 83 -95 83c-42 0 -88 -12 -125 -34l-50 99
c49 25 130 45 187 45zM226 92c67 0 105 35 105 70v52h-98c-52 0 -75 -23 -75 -61s23 -61 68 -61zM261 -69c48 0 83 -36 83 -81c0 -44 -35 -80 -83 -80c-47 0 -83 36 -83 80c0 45 36 81 83 81z" />
    <glyph glyph-name="uni1EA7.alt" horiz-adv-x="511" 
d="M522 648h-93l-120 147h134zM260 626l-50 -75h-121l103 147h139l101 -147h-120l-50 75h-2zM248 496c144 0 211 -59 211 -206v-290h-121l-5 43l-2 1c-33 -30 -80 -53 -136 -53c-104 0 -163 66 -163 155c0 98 62 157 196 157h103c-1 60 -28 83 -95 83
c-42 0 -88 -12 -125 -34l-50 99c49 25 130 45 187 45zM226 92c67 0 105 35 105 70v52h-98c-52 0 -75 -23 -75 -61s23 -61 68 -61z" />
    <glyph glyph-name="uni1EA9.alt" horiz-adv-x="511" 
d="M478 828c55 0 93 -26 93 -79c0 -46 -41 -83 -79 -98h-80c37 27 60 54 60 76c0 12 -11 20 -28 20c-24 0 -45 -7 -74 -27l-26 56c24 24 71 52 134 52zM260 626l-50 -75h-121l103 147h139l101 -147h-120l-50 75h-2zM248 496c144 0 211 -59 211 -206v-290h-121l-5 43l-2 1
c-33 -30 -80 -53 -136 -53c-104 0 -163 66 -163 155c0 98 62 157 196 157h103c-1 60 -28 83 -95 83c-42 0 -88 -12 -125 -34l-50 99c49 25 130 45 187 45zM226 92c67 0 105 35 105 70v52h-98c-52 0 -75 -23 -75 -61s23 -61 68 -61z" />
    <glyph glyph-name="uni1EAB.alt" horiz-adv-x="511" 
d="M202 782c-17 -2 -36 -20 -48 -50l-77 33c21 60 55 106 114 106c25 0 48 -7 78 -23c31 -19 41 -22 51 -22c25 0 41 18 54 48l78 -25c-20 -63 -59 -115 -117 -115c-28 0 -54 13 -76 26s-39 23 -57 22zM193 698h139l101 -147h-120l-50 75h-2l-50 -75h-121zM248 496
c144 0 211 -59 211 -206v-290h-121l-5 43l-2 1c-33 -30 -80 -53 -136 -53c-104 0 -163 66 -163 155c0 98 62 157 196 157h103c-1 60 -28 83 -95 83c-42 0 -88 -12 -125 -34l-50 99c49 25 130 45 187 45zM226 92c67 0 105 35 105 70v52h-98c-52 0 -75 -23 -75 -61
s23 -61 68 -61z" />
    <glyph glyph-name="adieresis.alt" horiz-adv-x="511" 
d="M155 557c-46 0 -82 36 -82 80c0 43 36 79 82 79c47 0 83 -36 83 -80s-36 -79 -83 -79zM365 557c-47 0 -82 36 -82 80c0 43 35 79 82 79c46 0 83 -36 83 -80s-37 -79 -83 -79zM248 496c144 0 211 -59 211 -206v-290h-121l-5 43l-2 1c-33 -30 -80 -53 -136 -53
c-104 0 -163 66 -163 155c0 98 62 157 196 157h103c-1 60 -28 83 -95 83c-42 0 -88 -12 -125 -34l-50 99c49 25 130 45 187 45zM226 92c67 0 105 35 105 70v52h-98c-52 0 -75 -23 -75 -61s23 -61 68 -61z" />
    <glyph glyph-name="uni1EA1.alt" horiz-adv-x="511" 
d="M248 496c144 0 211 -59 211 -206v-290h-121l-5 43l-2 1c-33 -30 -80 -53 -136 -53c-104 0 -163 66 -163 155c0 98 62 157 196 157h103c-1 60 -28 83 -95 83c-42 0 -88 -12 -125 -34l-50 99c49 25 130 45 187 45zM226 92c67 0 105 35 105 70v52h-98c-52 0 -75 -23 -75 -61
s23 -61 68 -61zM261 -69c48 0 83 -36 83 -81c0 -44 -35 -80 -83 -80c-47 0 -83 36 -83 80c0 45 36 81 83 81z" />
    <glyph glyph-name="agrave.alt" horiz-adv-x="511" 
d="M357 552h-124l-124 146l140 -1zM248 496c144 0 211 -59 211 -206v-290h-121l-5 43l-2 1c-33 -30 -80 -53 -136 -53c-104 0 -163 66 -163 155c0 98 62 157 196 157h103c-1 60 -28 83 -95 83c-42 0 -88 -12 -125 -34l-50 99c49 25 130 45 187 45zM226 92
c67 0 105 35 105 70v52h-98c-52 0 -75 -23 -75 -61s23 -61 68 -61z" />
    <glyph glyph-name="uni1EA3.alt" horiz-adv-x="511" 
d="M255 655c-26 0 -48 -8 -80 -29l-27 60c25 25 76 55 143 55c59 0 99 -27 99 -84c0 -49 -44 -89 -84 -105h-86c40 29 65 58 64 81c0 13 -11 22 -29 22zM248 496c144 0 211 -59 211 -206v-290h-121l-5 43l-2 1c-33 -30 -80 -53 -136 -53c-104 0 -163 66 -163 155
c0 98 62 157 196 157h103c-1 60 -28 83 -95 83c-42 0 -88 -12 -125 -34l-50 99c49 25 130 45 187 45zM226 92c67 0 105 35 105 70v52h-98c-52 0 -75 -23 -75 -61s23 -61 68 -61z" />
    <glyph glyph-name="amacron.alt" horiz-adv-x="511" 
d="M413 684v-105h-305v105h305zM248 496c144 0 211 -59 211 -206v-290h-121l-5 43l-2 1c-33 -30 -80 -53 -136 -53c-104 0 -163 66 -163 155c0 98 62 157 196 157h103c-1 60 -28 83 -95 83c-42 0 -88 -12 -125 -34l-50 99c49 25 130 45 187 45zM226 92c67 0 105 35 105 70
v52h-98c-52 0 -75 -23 -75 -61s23 -61 68 -61z" />
    <glyph glyph-name="aogonek.alt" horiz-adv-x="511" 
d="M451 0c-51 -9 -81 -41 -81 -72c0 -25 15 -41 41 -41c23 0 29 3 39 7l7 -72c-20 -8 -47 -11 -73 -11c-70 0 -114 37 -114 90c0 33 22 75 68 103l-5 39l-2 1c-33 -30 -80 -53 -136 -53c-104 0 -163 66 -163 155c0 98 62 157 196 157h103c-1 60 -28 83 -95 83
c-42 0 -88 -12 -125 -34l-50 99c49 25 130 45 187 45c144 0 211 -59 211 -206v-290h-8zM226 92c67 0 105 35 105 70v52h-98c-52 0 -75 -23 -75 -61s23 -61 68 -61z" />
    <glyph glyph-name="aring.alt" horiz-adv-x="511" 
d="M261 539c-59 0 -109 44 -109 105c0 58 45 106 109 106c60 0 109 -45 109 -106c0 -57 -44 -105 -109 -105zM261 682c-21 0 -37 -17 -37 -37c0 -21 16 -37 37 -37s37 17 37 38c0 20 -16 36 -37 36zM248 496c144 0 211 -59 211 -206v-290h-121l-5 43l-2 1
c-33 -30 -80 -53 -136 -53c-104 0 -163 66 -163 155c0 98 62 157 196 157h103c-1 60 -28 83 -95 83c-42 0 -88 -12 -125 -34l-50 99c49 25 130 45 187 45zM226 92c67 0 105 35 105 70v52h-98c-52 0 -75 -23 -75 -61s23 -61 68 -61z" />
    <glyph glyph-name="aringacute.alt" horiz-adv-x="514" 
d="M261 539c-59 0 -109 44 -109 105c0 58 45 106 109 106c31 0 60 -12 80 -33l63 48h141l-176 -139c-9 -49 -50 -87 -108 -87zM261 682c-21 0 -37 -17 -37 -37c0 -21 16 -37 37 -37s37 17 37 38c0 20 -16 36 -37 36zM248 496c144 0 211 -59 211 -206v-290h-121l-5 43l-2 1
c-33 -30 -80 -53 -136 -53c-104 0 -163 66 -163 155c0 98 62 157 196 157h103c-1 60 -28 83 -95 83c-42 0 -88 -12 -125 -34l-50 99c49 25 130 45 187 45zM226 92c67 0 105 35 105 70v52h-98c-52 0 -75 -23 -75 -61s23 -61 68 -61z" />
    <glyph glyph-name="atilde.alt" horiz-adv-x="511" 
d="M201 602c-26 0 -44 -20 -57 -50l-78 33c21 67 61 116 120 116c41 0 65 -14 86 -27c18 -11 35 -23 55 -23c24 0 43 20 56 50l77 -26c-20 -73 -62 -124 -117 -124c-37 0 -64 15 -88 30c-18 11 -36 21 -54 21zM248 496c144 0 211 -59 211 -206v-290h-121l-5 43l-2 1
c-33 -30 -80 -53 -136 -53c-104 0 -163 66 -163 155c0 98 62 157 196 157h103c-1 60 -28 83 -95 83c-42 0 -88 -12 -125 -34l-50 99c49 25 130 45 187 45zM226 92c67 0 105 35 105 70v52h-98c-52 0 -75 -23 -75 -61s23 -61 68 -61z" />
    <glyph glyph-name="g.alt" horiz-adv-x="527" 
d="M256 -220c-164 0 -241 60 -241 145c0 50 30 86 59 110v3c-21 17 -34 41 -34 72c0 34 14 64 56 105c-25 28 -40 64 -40 105c0 102 81 176 204 176c38 0 72 -7 101 -20l88 88l74 -74l-84 -78c17 -26 26 -57 26 -92c0 -100 -80 -175 -205 -175c-32 0 -64 7 -92 18
c-20 -20 -28 -33 -28 -46c0 -9 3 -30 55 -30h112c94 0 207 -24 207 -142c0 -87 -73 -165 -258 -165zM260 244c47 0 78 34 78 76c0 44 -31 78 -78 78s-78 -35 -78 -78c0 -42 31 -76 78 -76zM258 -115c75 0 125 20 125 58c0 36 -40 42 -102 42c-10 0 -39 1 -64 1
c-19 0 -53 3 -71 6c-17 -18 -20 -32 -20 -48c0 -35 34 -59 132 -59z" />
    <glyph glyph-name="gbreve.alt" horiz-adv-x="527" 
d="M260 541c-95 0 -156 57 -163 153h99c3 -30 26 -57 64 -57c39 0 62 27 64 57h99c-7 -91 -63 -153 -163 -153zM256 -220c-164 0 -241 60 -241 145c0 50 30 86 59 110v3c-21 17 -34 41 -34 72c0 34 14 64 56 105c-25 28 -40 64 -40 105c0 102 81 176 204 176
c38 0 72 -7 101 -20l88 88l74 -74l-84 -78c17 -26 26 -57 26 -92c0 -100 -80 -175 -205 -175c-32 0 -64 7 -92 18c-20 -20 -28 -33 -28 -46c0 -9 3 -30 55 -30h112c94 0 207 -24 207 -142c0 -87 -73 -165 -258 -165zM260 244c47 0 78 34 78 76c0 44 -31 78 -78 78
s-78 -35 -78 -78c0 -42 31 -76 78 -76zM258 -115c75 0 125 20 125 58c0 36 -40 42 -102 42c-10 0 -39 1 -64 1c-19 0 -53 3 -71 6c-17 -18 -20 -32 -20 -48c0 -35 34 -59 132 -59z" />
    <glyph glyph-name="gcaron.alt" horiz-adv-x="527" 
d="M190 547l-102 147h121l50 -75h2l50 75h120l-102 -147h-139zM256 -220c-164 0 -241 60 -241 145c0 50 30 86 59 110v3c-21 17 -34 41 -34 72c0 34 14 64 56 105c-25 28 -40 64 -40 105c0 102 81 176 204 176c38 0 72 -7 101 -20l88 88l74 -74l-84 -78
c17 -26 26 -57 26 -92c0 -100 -80 -175 -205 -175c-32 0 -64 7 -92 18c-20 -20 -28 -33 -28 -46c0 -9 3 -30 55 -30h112c94 0 207 -24 207 -142c0 -87 -73 -165 -258 -165zM260 244c47 0 78 34 78 76c0 44 -31 78 -78 78s-78 -35 -78 -78c0 -42 31 -76 78 -76zM258 -115
c75 0 125 20 125 58c0 36 -40 42 -102 42c-10 0 -39 1 -64 1c-19 0 -53 3 -71 6c-17 -18 -20 -32 -20 -48c0 -35 34 -59 132 -59z" />
    <glyph glyph-name="gcircumflex.alt" horiz-adv-x="527" 
d="M86 554l110 150h117l116 -150h-122l-51 76l-50 -76h-120zM256 -220c-164 0 -241 60 -241 145c0 50 30 86 59 110v3c-21 17 -34 41 -34 72c0 34 14 64 56 105c-25 28 -40 64 -40 105c0 102 81 176 204 176c38 0 72 -7 101 -20l88 88l74 -74l-84 -78c17 -26 26 -57 26 -92
c0 -100 -80 -175 -205 -175c-32 0 -64 7 -92 18c-20 -20 -28 -33 -28 -46c0 -9 3 -30 55 -30h112c94 0 207 -24 207 -142c0 -87 -73 -165 -258 -165zM260 244c47 0 78 34 78 76c0 44 -31 78 -78 78s-78 -35 -78 -78c0 -42 31 -76 78 -76zM258 -115c75 0 125 20 125 58
c0 36 -40 42 -102 42c-10 0 -39 1 -64 1c-19 0 -53 3 -71 6c-17 -18 -20 -32 -20 -48c0 -35 34 -59 132 -59z" />
    <glyph glyph-name="gcommaaccent.alt" horiz-adv-x="527" 
d="M341 727l27 -74c-39 -11 -55 -25 -55 -55c0 -13 2 -22 7 -38h-113c-4 14 -5 27 -5 45c0 78 59 117 139 122zM256 -220c-164 0 -241 60 -241 145c0 50 30 86 59 110v3c-21 17 -34 41 -34 72c0 34 14 64 56 105c-25 28 -40 64 -40 105c0 102 81 176 204 176
c38 0 72 -7 101 -20l88 88l74 -74l-84 -78c17 -26 26 -57 26 -92c0 -100 -80 -175 -205 -175c-32 0 -64 7 -92 18c-20 -20 -28 -33 -28 -46c0 -9 3 -30 55 -30h112c94 0 207 -24 207 -142c0 -87 -73 -165 -258 -165zM260 244c47 0 78 34 78 76c0 44 -31 78 -78 78
s-78 -35 -78 -78c0 -42 31 -76 78 -76zM258 -115c75 0 125 20 125 58c0 36 -40 42 -102 42c-10 0 -39 1 -64 1c-19 0 -53 3 -71 6c-17 -18 -20 -32 -20 -48c0 -35 34 -59 132 -59z" />
    <glyph glyph-name="gdotaccent.alt" horiz-adv-x="527" 
d="M261 553c-48 0 -83 36 -83 81c0 44 35 80 83 80c47 0 83 -36 83 -80c0 -45 -36 -81 -83 -81zM256 -220c-164 0 -241 60 -241 145c0 50 30 86 59 110v3c-21 17 -34 41 -34 72c0 34 14 64 56 105c-25 28 -40 64 -40 105c0 102 81 176 204 176c38 0 72 -7 101 -20l88 88
l74 -74l-84 -78c17 -26 26 -57 26 -92c0 -100 -80 -175 -205 -175c-32 0 -64 7 -92 18c-20 -20 -28 -33 -28 -46c0 -9 3 -30 55 -30h112c94 0 207 -24 207 -142c0 -87 -73 -165 -258 -165zM260 244c47 0 78 34 78 76c0 44 -31 78 -78 78s-78 -35 -78 -78
c0 -42 31 -76 78 -76zM258 -115c75 0 125 20 125 58c0 36 -40 42 -102 42c-10 0 -39 1 -64 1c-19 0 -53 3 -71 6c-17 -18 -20 -32 -20 -48c0 -35 34 -59 132 -59z" />
    <glyph glyph-name="uni1E21.alt" horiz-adv-x="527" 
d="M107 577v105h305v-105h-305zM256 -220c-164 0 -241 60 -241 145c0 50 30 86 59 110v3c-21 17 -34 41 -34 72c0 34 14 64 56 105c-25 28 -40 64 -40 105c0 102 81 176 204 176c38 0 72 -7 101 -20l88 88l74 -74l-84 -78c17 -26 26 -57 26 -92c0 -100 -80 -175 -205 -175
c-32 0 -64 7 -92 18c-20 -20 -28 -33 -28 -46c0 -9 3 -30 55 -30h112c94 0 207 -24 207 -142c0 -87 -73 -165 -258 -165zM260 244c47 0 78 34 78 76c0 44 -31 78 -78 78s-78 -35 -78 -78c0 -42 31 -76 78 -76zM258 -115c75 0 125 20 125 58c0 36 -40 42 -102 42
c-10 0 -39 1 -64 1c-19 0 -53 3 -71 6c-17 -18 -20 -32 -20 -48c0 -35 34 -59 132 -59z" />
    <glyph glyph-name="f.calt" horiz-adv-x="345" 
d="M82 0v380h-51v109h51v87c0 114 57 169 154 169c31 0 60 -7 82 -15l-22 -107c-10 4 -20 7 -29 7c-27 0 -53 -10 -53 -67v-74h108v-109h-108v-380h-132z" />
    <glyph glyph-name="j.calt" horiz-adv-x="254" 
d="M129 555c-48 0 -83 36 -83 81c0 44 35 80 83 80c47 0 83 -36 83 -80c0 -45 -36 -81 -83 -81zM50 -207c-25 0 -43 2 -61 6l13 110c4 -1 19 -1 22 -1c31 0 39 23 39 68v513h131v-518c0 -118 -55 -178 -144 -178z" />
    <glyph glyph-name="uni0237.calt" horiz-adv-x="254" 
d="M50 -207c-25 0 -43 2 -61 6l13 110c4 -1 19 -1 22 -1c31 0 39 23 39 68v513h131v-518c0 -118 -55 -178 -144 -178z" />
    <glyph glyph-name="jcircumflex.calt" horiz-adv-x="254" 
d="M-44 551l103 147h139l101 -147h-120l-50 75h-2l-50 -75h-121zM50 -207c-25 0 -43 2 -61 6l13 110c4 -1 19 -1 22 -1c31 0 39 23 39 68v513h131v-518c0 -118 -55 -178 -144 -178z" />
    <glyph glyph-name="germandbls.calt" horiz-adv-x="769" 
d="M535 425c118 -47 211 -80 211 -214c0 -156 -136 -220 -239 -220c-70 0 -150 27 -219 84l65 121c51 -53 113 -77 156 -77c58 0 90 31 90 75c0 53 -37 73 -124 101c-38 13 -77 30 -119 53l121 232l-2 4c-50 6 -97 10 -128 10c-92 0 -145 -34 -145 -129l-1 -465h-139l1 471
c0 181 107 248 271 248c85 0 218 -20 332 -48z" />
    <glyph glyph-name="uni0162" unicode="&#x162;" horiz-adv-x="588" 
d="M302 0l-15 -29v-2c65 -2 98 -31 98 -81c0 -45 -39 -79 -128 -79c-29 0 -46 3 -61 6v59c12 -4 27 -7 48 -7c22 0 48 7 48 28c0 18 -29 32 -79 32v37l17 36h-8v585h-194v125h533v-125h-197v-585h-62z" />
    <glyph glyph-name="uni021A" unicode="&#x21a;" horiz-adv-x="588" 
d="M222 0v585h-194v125h533v-125h-197v-585h-142zM210 -220l-27 74c39 11 55 25 55 55c0 13 -2 22 -7 38h113c4 -14 5 -27 5 -45c0 -78 -59 -117 -139 -122z" />
    <glyph glyph-name="q.smcp.alt" horiz-adv-x="694" 
d="M656 -31l-79 -98l-157 128c-23 -5 -47 -7 -72 -7c-183 0 -310 125 -310 300c0 174 127 298 310 298c178 0 307 -120 307 -298c0 -101 -41 -183 -109 -236zM176 292c0 -99 70 -177 172 -177c99 0 171 76 171 177c0 100 -72 175 -171 175c-102 0 -172 -77 -172 -175z" />
    <glyph glyph-name="a.smcp" horiz-adv-x="595" 
d="M9 0l226 582h125l227 -582h-137l-38 104h-229l-37 -104h-137zM221 214h153l-76 212h-2z" />
    <glyph glyph-name="aacute.smcp" horiz-adv-x="595" 
d="M237 649l114 146l137 1l-124 -147h-127zM9 0l226 582h125l227 -582h-137l-38 104h-229l-37 -104h-137zM221 214h153l-76 212h-2z" />
    <glyph glyph-name="abreve.smcp" horiz-adv-x="595" 
d="M298 639c-95 0 -156 57 -163 153h99c3 -30 26 -57 64 -57c39 0 62 27 64 57h99c-7 -91 -63 -153 -163 -153zM9 0l226 582h125l227 -582h-137l-38 104h-229l-37 -104h-137zM221 214h153l-76 212h-2z" />
    <glyph glyph-name="uni1EAF.smcp" horiz-adv-x="595" 
d="M248 808l79 147h134l-120 -147h-93zM298 639c-95 0 -156 57 -163 153h99c3 -30 26 -57 64 -57c39 0 62 27 64 57h99c-7 -91 -63 -153 -163 -153zM9 0l226 582h125l227 -582h-137l-38 104h-229l-37 -104h-137zM221 214h153l-76 212h-2z" />
    <glyph glyph-name="uni1EB7.smcp" horiz-adv-x="595" 
d="M298 639c-95 0 -156 57 -163 153h99c3 -30 26 -57 64 -57c39 0 62 27 64 57h99c-7 -91 -63 -153 -163 -153zM9 0l226 582h125l227 -582h-137l-38 104h-229l-37 -104h-137zM221 214h153l-76 212h-2zM297 -69c48 0 83 -36 83 -81c0 -44 -35 -80 -83 -80
c-47 0 -83 36 -83 80c0 45 36 81 83 81z" />
    <glyph glyph-name="uni1EB1.smcp" horiz-adv-x="595" 
d="M257 808l-121 147h135l79 -147h-93zM298 639c-95 0 -156 57 -163 153h99c3 -30 26 -57 64 -57c39 0 62 27 64 57h99c-7 -91 -63 -153 -163 -153zM9 0l226 582h125l227 -582h-137l-38 104h-229l-37 -104h-137zM221 214h153l-76 212h-2z" />
    <glyph glyph-name="uni1EB3.smcp" horiz-adv-x="595" 
d="M251 794c37 27 60 54 60 76c0 12 -11 20 -28 20c-24 0 -45 -7 -74 -27l-26 56c24 24 71 52 134 52c55 0 93 -26 93 -79c0 -46 -41 -83 -79 -98h-80zM298 640c-98 0 -161 54 -169 144h103c3 -28 27 -54 66 -54c40 0 64 26 66 54h103c-8 -86 -66 -144 -169 -144zM9 0
l226 582h125l227 -582h-137l-38 104h-229l-37 -104h-137zM221 214h153l-76 212h-2z" />
    <glyph glyph-name="uni1EB5.smcp" horiz-adv-x="595" 
d="M189 824l-77 33c21 60 55 106 114 106c25 0 48 -7 78 -23c31 -19 41 -22 51 -22c25 0 41 18 54 48l78 -25c-20 -63 -59 -115 -117 -115c-28 0 -54 13 -76 26s-39 23 -57 22c-17 -2 -36 -20 -48 -50zM297 639c-95 0 -156 57 -163 153h99c3 -30 26 -57 64 -57
c39 0 62 27 64 57h99c-7 -91 -63 -153 -163 -153zM9 0l226 582h125l227 -582h-137l-38 104h-229l-37 -104h-137zM221 214h153l-76 212h-2z" />
    <glyph glyph-name="uni01CE.smcp" horiz-adv-x="595" 
d="M228 645l-102 147h121l50 -75h2l50 75h120l-102 -147h-139zM9 0l226 582h125l227 -582h-137l-38 104h-229l-37 -104h-137zM221 214h153l-76 212h-2z" />
    <glyph glyph-name="acircumflex.smcp" horiz-adv-x="595" 
d="M126 647l103 147h139l101 -147h-120l-50 75h-2l-50 -75h-121zM9 0l226 582h125l227 -582h-137l-38 104h-229l-37 -104h-137zM221 214h153l-76 212h-2z" />
    <glyph glyph-name="uni1EA5.smcp" horiz-adv-x="595" 
d="M436 744l80 147h134l-120 -147h-94zM126 647l103 147h139l101 -147h-120l-50 75h-2l-50 -75h-121zM9 0l226 582h125l227 -582h-137l-38 104h-229l-37 -104h-137zM221 214h153l-76 212h-2z" />
    <glyph glyph-name="uni1EAD.smcp" horiz-adv-x="595" 
d="M126 647l103 147h139l101 -147h-120l-50 75h-2l-50 -75h-121zM9 0l226 582h125l227 -582h-137l-38 104h-229l-37 -104h-137zM221 214h153l-76 212h-2zM297 -69c48 0 83 -36 83 -81c0 -44 -35 -80 -83 -80c-47 0 -83 36 -83 80c0 45 36 81 83 81z" />
    <glyph glyph-name="uni1EA7.smcp" horiz-adv-x="595" 
d="M466 744l-120 147h134l79 -147h-93zM126 647l103 147h139l101 -147h-120l-50 75h-2l-50 -75h-121zM9 0l226 582h125l227 -582h-137l-38 104h-229l-37 -104h-137zM221 214h153l-76 212h-2z" />
    <glyph glyph-name="uni1EA9.smcp" horiz-adv-x="595" 
d="M449 747c37 27 60 54 60 76c0 12 -11 20 -28 20c-24 0 -45 -7 -74 -27l-26 56c24 24 71 52 134 52c55 0 93 -26 93 -79c0 -46 -41 -83 -79 -98h-80zM126 647l103 147h139l101 -147h-120l-50 75h-2l-50 -75h-121zM9 0l226 582h125l227 -582h-137l-38 104h-229l-37 -104
h-137zM221 214h153l-76 212h-2z" />
    <glyph glyph-name="uni1EAB.smcp" horiz-adv-x="595" 
d="M191 828l-77 33c21 60 55 106 114 106c25 0 48 -7 78 -23c31 -19 41 -22 51 -22c25 0 41 18 54 48l78 -25c-20 -63 -59 -115 -117 -115c-28 0 -54 13 -76 26s-39 23 -57 22c-17 -2 -36 -20 -48 -50zM127 647l103 147h139l101 -147h-120l-50 75h-2l-50 -75h-121zM9 0
l226 582h125l227 -582h-137l-38 104h-229l-37 -104h-137zM221 214h153l-76 212h-2z" />
    <glyph glyph-name="adieresis.smcp" horiz-adv-x="595" 
d="M192 653c-46 0 -82 36 -82 80c0 43 36 79 82 79c47 0 83 -36 83 -80s-36 -79 -83 -79zM402 653c-47 0 -82 36 -82 80c0 43 35 79 82 79c46 0 83 -36 83 -80s-37 -79 -83 -79zM9 0l226 582h125l227 -582h-137l-38 104h-229l-37 -104h-137zM221 214h153l-76 212h-2z" />
    <glyph glyph-name="uni1EA1.smcp" horiz-adv-x="595" 
d="M9 0l226 582h125l227 -582h-137l-38 104h-229l-37 -104h-137zM221 214h153l-76 212h-2zM297 -69c48 0 83 -36 83 -81c0 -44 -35 -80 -83 -80c-47 0 -83 36 -83 80c0 45 36 81 83 81z" />
    <glyph glyph-name="agrave.smcp" horiz-adv-x="595" 
d="M234 647l-124 146l140 -1l108 -145h-124zM9 0l226 582h125l227 -582h-137l-38 104h-229l-37 -104h-137zM221 214h153l-76 212h-2z" />
    <glyph glyph-name="uni1EA3.smcp" horiz-adv-x="595" 
d="M257 648c40 29 65 58 64 81c0 13 -11 22 -29 22c-26 0 -48 -8 -80 -29l-27 60c25 25 76 55 143 55c59 0 99 -27 99 -84c0 -49 -44 -89 -84 -105h-86zM9 0l226 582h125l227 -582h-137l-38 104h-229l-37 -104h-137zM221 214h153l-76 212h-2z" />
    <glyph glyph-name="uni0251.smcp" horiz-adv-x="688" 
d="M306 -8c-161 0 -268 125 -268 300c0 174 107 298 268 298c78 0 140 -30 182 -83l2 1v74h131v-582h-131v75l-3 2c-41 -54 -103 -85 -181 -85zM331 115c95 0 159 76 159 177c0 100 -64 175 -159 175c-94 0 -156 -77 -156 -175c0 -99 62 -177 156 -177z" />
    <glyph glyph-name="amacron.smcp" horiz-adv-x="595" 
d="M145 675v105h305v-105h-305zM9 0l226 582h125l227 -582h-137l-38 104h-229l-37 -104h-137zM221 214h153l-76 212h-2z" />
    <glyph glyph-name="aogonek.smcp" horiz-adv-x="595" 
d="M527 -113c23 0 29 3 39 7l7 -72c-20 -8 -47 -11 -73 -11c-70 0 -114 37 -114 90c0 32 21 72 63 101l-37 102h-229l-37 -104h-137l226 582h125l227 -582h-20c-51 -9 -81 -41 -81 -72c0 -25 15 -41 41 -41zM221 214h153l-76 212h-2z" />
    <glyph glyph-name="aring.smcp" horiz-adv-x="595" 
d="M298 635c-59 0 -109 44 -109 105c0 58 45 106 109 106c60 0 109 -45 109 -106c0 -57 -44 -105 -109 -105zM298 704c21 0 37 17 37 38c0 20 -16 36 -37 36s-37 -17 -37 -37c0 -21 16 -37 37 -37zM9 0l226 582h125l227 -582h-137l-38 104h-229l-37 -104h-137zM221 214h153
l-76 212h-2z" />
    <glyph glyph-name="aringacute.smcp" horiz-adv-x="595" 
d="M298 635c-59 0 -109 44 -109 105c0 58 45 106 109 106c32 0 61 -13 81 -34l61 48h135l-170 -138c-8 -49 -49 -87 -107 -87zM298 778c-21 0 -37 -17 -37 -37c0 -21 16 -37 37 -37s37 17 37 38c0 20 -16 36 -37 36zM360 582l227 -582h-137l-38 104h-229l-37 -104h-137
l226 582h125zM221 214h153l-76 212h-2z" />
    <glyph glyph-name="atilde.smcp" horiz-adv-x="595" 
d="M380 647c-37 0 -64 15 -88 30c-18 11 -36 21 -54 21c-26 0 -44 -20 -57 -50l-78 33c21 67 61 116 120 116c41 0 65 -14 86 -27c18 -11 35 -23 55 -23c24 0 43 20 56 50l77 -26c-20 -73 -62 -124 -117 -124zM9 0l226 582h125l227 -582h-137l-38 104h-229l-37 -104h-137z
M221 214h153l-76 212h-2z" />
    <glyph glyph-name="ae.smcp" horiz-adv-x="819" 
d="M492 116h290v-116h-419v105h-175l-50 -105h-139l293 582h473v-117h-273v-125h223v-112h-223v-112zM363 214v252h-2l-121 -252h123z" />
    <glyph glyph-name="aeacute.smcp" horiz-adv-x="819" 
d="M569 796l-124 -147h-127l114 146zM492 116h290v-116h-419v105h-175l-50 -105h-139l293 582h473v-117h-273v-125h223v-112h-223v-112zM363 214v252h-2l-121 -252h123z" />
    <glyph glyph-name="b.smcp" horiz-adv-x="561" 
d="M67 0v582h232c133 0 202 -52 202 -143c0 -47 -20 -100 -86 -128v-1c80 -22 117 -77 117 -149c0 -98 -65 -161 -212 -161h-253zM197 349h93c52 0 81 18 81 60c0 40 -26 59 -81 59h-93v-119zM197 114h110c59 0 88 22 88 66c0 43 -28 64 -86 64h-112v-130z" />
    <glyph glyph-name="c.smcp" horiz-adv-x="614" 
d="M348 -9c-166 0 -310 104 -310 299c0 165 112 299 310 299c82 0 174 -33 241 -112l-96 -82c-32 36 -85 68 -145 68c-97 0 -172 -65 -172 -173c0 -98 69 -173 172 -173c58 0 112 28 145 68l96 -82c-52 -62 -134 -112 -241 -112z" />
    <glyph glyph-name="cacute.smcp" horiz-adv-x="614" 
d="M262 649l114 146l137 1l-124 -147h-127zM348 -9c-166 0 -310 104 -310 299c0 165 112 299 310 299c82 0 174 -33 241 -112l-96 -82c-32 36 -85 68 -145 68c-97 0 -172 -65 -172 -173c0 -98 69 -173 172 -173c58 0 112 28 145 68l96 -82c-52 -62 -134 -112 -241 -112z" />
    <glyph glyph-name="ccaron.smcp" horiz-adv-x="614" 
d="M278 645l-102 147h121l50 -75h2l50 75h120l-102 -147h-139zM348 -9c-166 0 -310 104 -310 299c0 165 112 299 310 299c82 0 174 -33 241 -112l-96 -82c-32 36 -85 68 -145 68c-97 0 -172 -65 -172 -173c0 -98 69 -173 172 -173c58 0 112 28 145 68l96 -82
c-52 -62 -134 -112 -241 -112z" />
    <glyph glyph-name="ccedilla.smcp" horiz-adv-x="614" 
d="M348 117c58 0 112 28 145 68l96 -82c-50 -59 -127 -108 -228 -112l-10 -19v-2c65 -2 98 -31 98 -81c0 -45 -39 -79 -128 -79c-29 0 -46 3 -61 6v59c12 -4 27 -7 48 -7c22 0 48 7 48 28c0 18 -29 32 -79 32v37l14 30c-140 21 -253 123 -253 295c0 165 112 299 310 299
c82 0 174 -33 241 -112l-96 -82c-32 36 -85 68 -145 68c-97 0 -172 -65 -172 -173c0 -98 69 -173 172 -173z" />
    <glyph glyph-name="ccircumflex.smcp" horiz-adv-x="614" 
d="M176 647l103 147h139l101 -147h-120l-50 75h-2l-50 -75h-121zM348 -9c-166 0 -310 104 -310 299c0 165 112 299 310 299c82 0 174 -33 241 -112l-96 -82c-32 36 -85 68 -145 68c-97 0 -172 -65 -172 -173c0 -98 69 -173 172 -173c58 0 112 28 145 68l96 -82
c-52 -62 -134 -112 -241 -112z" />
    <glyph glyph-name="cdotaccent.smcp" horiz-adv-x="614" 
d="M349 651c-48 0 -83 36 -83 81c0 44 35 80 83 80c47 0 83 -36 83 -80c0 -45 -36 -81 -83 -81zM348 -9c-166 0 -310 104 -310 299c0 165 112 299 310 299c82 0 174 -33 241 -112l-96 -82c-32 36 -85 68 -145 68c-97 0 -172 -65 -172 -173c0 -98 69 -173 172 -173
c58 0 112 28 145 68l96 -82c-52 -62 -134 -112 -241 -112z" />
    <glyph glyph-name="d.smcp" horiz-adv-x="631" 
d="M67 0v582h207c194 0 317 -121 317 -292s-117 -290 -315 -290h-209zM196 116h72c113 0 187 77 187 174c0 100 -75 175 -179 175h-80v-349z" />
    <glyph glyph-name="eth.smcp" horiz-adv-x="631" 
d="M274 582c194 0 317 -121 317 -292s-117 -290 -315 -290h-209v231h-52v108h52v243h207zM268 116c113 0 187 77 187 174c0 100 -75 175 -179 175h-80v-126h125v-108h-125v-115h72z" />
    <glyph glyph-name="dcaron.smcp" horiz-adv-x="631" 
d="M239 644l-102 147h121l50 -75h2l50 75h120l-102 -147h-139zM67 0v582h207c194 0 317 -121 317 -292s-117 -290 -315 -290h-209zM196 116h72c113 0 187 77 187 174c0 100 -75 175 -179 175h-80v-349z" />
    <glyph glyph-name="dcroat.smcp" horiz-adv-x="631" 
d="M274 582c194 0 317 -121 317 -292s-117 -290 -315 -290h-209v231h-52v108h52v243h207zM268 116c113 0 187 77 187 174c0 100 -75 175 -179 175h-80v-126h125v-108h-125v-115h72z" />
    <glyph glyph-name="uni1E0D.smcp" horiz-adv-x="631" 
d="M67 0v582h207c194 0 317 -121 317 -292s-117 -290 -315 -290h-209zM196 116h72c113 0 187 77 187 174c0 100 -75 175 -179 175h-80v-349zM302 -69c48 0 83 -36 83 -81c0 -44 -35 -80 -83 -80c-47 0 -83 36 -83 80c0 45 36 81 83 81z" />
    <glyph glyph-name="uni1E0F.smcp" horiz-adv-x="631" 
d="M67 0v582h207c194 0 317 -121 317 -292s-117 -290 -315 -290h-209zM196 116h72c113 0 187 77 187 174c0 100 -75 175 -179 175h-80v-349zM455 -213h-305v105h305v-105z" />
    <glyph glyph-name="e.smcp" horiz-adv-x="522" 
d="M66 0v582h400v-117h-270v-125h216v-111h-216v-113h289v-116h-419z" />
    <glyph glyph-name="eacute.smcp" horiz-adv-x="522" 
d="M163 648l114 146l137 1l-124 -147h-127zM66 0v582h400v-117h-270v-125h216v-111h-216v-113h289v-116h-419z" />
    <glyph glyph-name="ebreve.smcp" horiz-adv-x="522" 
d="M270 638c-95 0 -156 57 -163 153h99c3 -30 26 -57 64 -57c39 0 62 27 64 57h99c-7 -91 -63 -153 -163 -153zM66 0v582h400v-117h-270v-125h216v-111h-216v-113h289v-116h-419z" />
    <glyph glyph-name="ecaron.smcp" horiz-adv-x="522" 
d="M200 644l-102 147h121l50 -75h2l50 75h120l-102 -147h-139zM66 0v582h400v-117h-270v-125h216v-111h-216v-113h289v-116h-419z" />
    <glyph glyph-name="ecircumflex.smcp" horiz-adv-x="522" 
d="M98 646l103 147h139l101 -147h-120l-50 75h-2l-50 -75h-121zM66 0v582h400v-117h-270v-125h216v-111h-216v-113h289v-116h-419z" />
    <glyph glyph-name="uni1EBF.smcp" horiz-adv-x="522" 
d="M408 743l80 147h134l-120 -147h-94zM98 646l103 147h139l101 -147h-120l-50 75h-2l-50 -75h-121zM66 0v582h400v-117h-270v-125h216v-111h-216v-113h289v-116h-419z" />
    <glyph glyph-name="uni1EC7.smcp" horiz-adv-x="522" 
d="M98 646l103 147h139l101 -147h-120l-50 75h-2l-50 -75h-121zM66 0v582h400v-117h-270v-125h216v-111h-216v-113h289v-116h-419zM280 -68c48 0 83 -36 83 -81c0 -44 -35 -80 -83 -80c-47 0 -83 36 -83 80c0 45 36 81 83 81z" />
    <glyph glyph-name="uni1EC1.smcp" horiz-adv-x="522" 
d="M438 743l-120 147h134l79 -147h-93zM98 646l103 147h139l101 -147h-120l-50 75h-2l-50 -75h-121zM66 0v582h400v-117h-270v-125h216v-111h-216v-113h289v-116h-419z" />
    <glyph glyph-name="uni1EC3.smcp" horiz-adv-x="522" 
d="M421 746c37 27 60 54 60 76c0 12 -11 20 -28 20c-24 0 -45 -7 -74 -27l-26 56c24 24 71 52 134 52c55 0 93 -26 93 -79c0 -46 -41 -83 -79 -98h-80zM98 646l103 147h139l101 -147h-120l-50 75h-2l-50 -75h-121zM66 0v582h400v-117h-270v-125h216v-111h-216v-113h289v-116
h-419z" />
    <glyph glyph-name="uni1EC5.smcp" horiz-adv-x="522" 
d="M163 827l-77 33c21 60 55 106 114 106c25 0 48 -7 78 -23c31 -19 41 -22 51 -22c25 0 41 18 54 48l78 -25c-20 -63 -59 -115 -117 -115c-28 0 -54 13 -76 26s-39 23 -57 22c-17 -2 -36 -20 -48 -50zM99 646l103 147h139l101 -147h-120l-50 75h-2l-50 -75h-121zM66 0v582
h400v-117h-270v-125h216v-111h-216v-113h289v-116h-419z" />
    <glyph glyph-name="edieresis.smcp" horiz-adv-x="522" 
d="M164 652c-46 0 -82 36 -82 80c0 43 36 79 82 79c47 0 83 -36 83 -80s-36 -79 -83 -79zM374 652c-47 0 -82 36 -82 80c0 43 35 79 82 79c46 0 83 -36 83 -80s-37 -79 -83 -79zM66 0v582h400v-117h-270v-125h216v-111h-216v-113h289v-116h-419z" />
    <glyph glyph-name="edotaccent.smcp" horiz-adv-x="522" 
d="M271 650c-48 0 -83 36 -83 81c0 44 35 80 83 80c47 0 83 -36 83 -80c0 -45 -36 -81 -83 -81zM66 0v582h400v-117h-270v-125h216v-111h-216v-113h289v-116h-419z" />
    <glyph glyph-name="uni1EB9.smcp" horiz-adv-x="522" 
d="M66 0v582h400v-117h-270v-125h216v-111h-216v-113h289v-116h-419zM280 -68c48 0 83 -36 83 -81c0 -44 -35 -80 -83 -80c-47 0 -83 36 -83 80c0 45 36 81 83 81z" />
    <glyph glyph-name="egrave.smcp" horiz-adv-x="522" 
d="M256 646l-124 146l140 -1l108 -145h-124zM66 0v582h400v-117h-270v-125h216v-111h-216v-113h289v-116h-419z" />
    <glyph glyph-name="uni1EBB.smcp" horiz-adv-x="522" 
d="M229 647c40 29 65 58 64 81c0 13 -11 22 -29 22c-26 0 -48 -8 -80 -29l-27 60c25 25 76 55 143 55c59 0 99 -27 99 -84c0 -49 -44 -89 -84 -105h-86zM66 0v582h400v-117h-270v-125h216v-111h-216v-113h289v-116h-419z" />
    <glyph glyph-name="emacron.smcp" horiz-adv-x="522" 
d="M117 674v105h305v-105h-305zM66 0v582h400v-117h-270v-125h216v-111h-216v-113h289v-116h-419z" />
    <glyph glyph-name="eogonek.smcp" horiz-adv-x="522" 
d="M470 0c-51 -9 -81 -41 -81 -72c0 -25 15 -41 41 -41c23 0 29 3 39 7l7 -72c-20 -8 -47 -11 -73 -11c-70 0 -114 37 -114 90c0 31 20 71 61 99h-284v582h400v-117h-270v-125h216v-111h-216v-113h289v-116h-15z" />
    <glyph glyph-name="uni1EBD.smcp" horiz-adv-x="522" 
d="M352 646c-37 0 -64 15 -88 30c-18 11 -36 21 -54 21c-26 0 -44 -20 -57 -50l-78 33c21 67 61 116 120 116c41 0 65 -14 86 -27c18 -11 35 -23 55 -23c24 0 43 20 56 50l77 -26c-20 -73 -62 -124 -117 -124zM66 0v582h400v-117h-270v-125h216v-111h-216v-113h289v-116
h-419z" />
    <glyph glyph-name="uni0259.smcp" horiz-adv-x="649" 
d="M309 590c192 0 301 -126 301 -299c0 -174 -108 -299 -292 -299c-170 0 -286 114 -286 282c0 15 2 44 4 52h442c-13 82 -74 140 -176 140c-53 0 -101 -15 -148 -48l-79 99c58 46 147 73 234 73zM318 115c84 0 139 40 157 109h-308c12 -66 66 -109 151 -109z" />
    <glyph glyph-name="f.smcp" horiz-adv-x="507" 
d="M67 0v582h412v-117h-283v-137h235v-116h-235v-212h-129z" />
    <glyph glyph-name="g.smcp" horiz-adv-x="639" 
d="M348 -9c-174 0 -310 108 -310 299c0 168 114 299 304 299c87 0 179 -35 242 -103l-92 -79c-35 31 -85 58 -150 58c-90 0 -167 -65 -167 -175c0 -99 65 -178 173 -178c39 0 75 8 112 28v72h-125v113h251v-262c-55 -41 -145 -72 -238 -72z" />
    <glyph glyph-name="gbreve.smcp" horiz-adv-x="639" 
d="M338 638c-95 0 -156 57 -163 153h99c3 -30 26 -57 64 -57c39 0 62 27 64 57h99c-7 -91 -63 -153 -163 -153zM348 -9c-174 0 -310 108 -310 299c0 168 114 299 304 299c87 0 179 -35 242 -103l-92 -79c-35 31 -85 58 -150 58c-90 0 -167 -65 -167 -175
c0 -99 65 -178 173 -178c39 0 75 8 112 28v72h-125v113h251v-262c-55 -41 -145 -72 -238 -72z" />
    <glyph glyph-name="gcaron.smcp" horiz-adv-x="639" 
d="M268 644l-102 147h121l50 -75h2l50 75h120l-102 -147h-139zM348 -9c-174 0 -310 108 -310 299c0 168 114 299 304 299c87 0 179 -35 242 -103l-92 -79c-35 31 -85 58 -150 58c-90 0 -167 -65 -167 -175c0 -99 65 -178 173 -178c39 0 75 8 112 28v72h-125v113h251v-262
c-55 -41 -145 -72 -238 -72z" />
    <glyph glyph-name="gcircumflex.smcp" horiz-adv-x="639" 
d="M166 646l103 147h139l101 -147h-120l-50 75h-2l-50 -75h-121zM348 -9c-174 0 -310 108 -310 299c0 168 114 299 304 299c87 0 179 -35 242 -103l-92 -79c-35 31 -85 58 -150 58c-90 0 -167 -65 -167 -175c0 -99 65 -178 173 -178c39 0 75 8 112 28v72h-125v113h251v-262
c-55 -41 -145 -72 -238 -72z" />
    <glyph glyph-name="gcommaaccent.smcp" horiz-adv-x="639" 
d="M348 -9c-174 0 -310 108 -310 299c0 168 114 299 304 299c87 0 179 -35 242 -103l-92 -79c-35 31 -85 58 -150 58c-90 0 -167 -65 -167 -175c0 -99 65 -178 173 -178c39 0 75 8 112 28v72h-125v113h251v-262c-55 -41 -145 -72 -238 -72zM269 -219l-27 74
c39 11 55 25 55 55c0 13 -2 22 -7 38h113c4 -14 5 -27 5 -45c0 -78 -59 -117 -139 -122z" />
    <glyph glyph-name="gdotaccent.smcp" horiz-adv-x="639" 
d="M339 650c-48 0 -83 36 -83 81c0 44 35 80 83 80c47 0 83 -36 83 -80c0 -45 -36 -81 -83 -81zM348 -9c-174 0 -310 108 -310 299c0 168 114 299 304 299c87 0 179 -35 242 -103l-92 -79c-35 31 -85 58 -150 58c-90 0 -167 -65 -167 -175c0 -99 65 -178 173 -178
c39 0 75 8 112 28v72h-125v113h251v-262c-55 -41 -145 -72 -238 -72z" />
    <glyph glyph-name="uni1E21.smcp" horiz-adv-x="639" 
d="M185 674v105h305v-105h-305zM348 -9c-174 0 -310 108 -310 299c0 168 114 299 304 299c87 0 179 -35 242 -103l-92 -79c-35 31 -85 58 -150 58c-90 0 -167 -65 -167 -175c0 -99 65 -178 173 -178c39 0 75 8 112 28v72h-125v113h251v-262c-55 -41 -145 -72 -238 -72z" />
    <glyph glyph-name="uni0261.smcp" horiz-adv-x="683" 
d="M328 -170c-93 0 -170 17 -229 51l31 113c50 -27 110 -48 188 -48c118 0 167 52 167 153v28l-3 2c-42 -58 -106 -89 -189 -89c-145 0 -256 103 -256 269c0 164 111 281 262 281c79 0 142 -30 183 -83l3 1v74h130v-480c0 -161 -69 -272 -287 -272zM325 163
c100 0 159 69 159 152s-59 152 -154 152c-94 0 -156 -70 -156 -157c0 -91 64 -147 151 -147z" />
    <glyph glyph-name="h.smcp" horiz-adv-x="635" 
d="M67 0v582h131v-243h239v243h130v-582h-130v223h-239v-223h-131z" />
    <glyph glyph-name="hbar.smcp" horiz-adv-x="635" 
d="M596 495v-85h-29v-410h-130v223h-239v-223h-131v410h-26v85h26v87h131v-87h239v87h130v-87h29zM437 339v71h-239v-71h239z" />
    <glyph glyph-name="uni1E2B.smcp" horiz-adv-x="635" 
d="M67 0v582h131v-243h239v243h130v-582h-130v223h-239v-223h-131zM320 -230c-100 0 -156 62 -163 153h99c2 -30 25 -57 64 -57c38 0 61 27 64 57h99c-7 -96 -68 -153 -163 -153z" />
    <glyph glyph-name="hcircumflex.smcp" horiz-adv-x="635" 
d="M148 647l103 147h139l101 -147h-120l-50 75h-2l-50 -75h-121zM67 0v582h131v-243h239v243h130v-582h-130v223h-239v-223h-131z" />
    <glyph glyph-name="uni1E25.smcp" horiz-adv-x="635" 
d="M67 0v582h131v-243h239v243h130v-582h-130v223h-239v-223h-131zM320 -69c48 0 83 -36 83 -81c0 -44 -35 -80 -83 -80c-47 0 -83 36 -83 80c0 45 36 81 83 81z" />
    <glyph glyph-name="i.smcp" horiz-adv-x="268" 
d="M68 0v582h132v-582h-132z" />
    <glyph glyph-name="dotlessi.smcp" horiz-adv-x="268" 
d="M68 0v582h132v-582h-132z" />
    <glyph glyph-name="iacute.smcp" horiz-adv-x="268" 
d="M73 649l114 146l137 1l-124 -147h-127zM68 0v582h132v-582h-132z" />
    <glyph glyph-name="ibreve.smcp" horiz-adv-x="268" 
d="M133 638c-95 0 -156 57 -163 153h99c3 -30 26 -57 64 -57c39 0 62 27 64 57h99c-7 -91 -63 -153 -163 -153zM68 0v582h132v-582h-132z" />
    <glyph glyph-name="uni01D0.smcp" horiz-adv-x="268" 
d="M63 644l-102 147h121l50 -75h2l50 75h120l-102 -147h-139zM68 0v582h132v-582h-132z" />
    <glyph glyph-name="icircumflex.smcp" horiz-adv-x="268" 
d="M-39 646l103 147h139l101 -147h-120l-50 75h-2l-50 -75h-121zM68 0v582h132v-582h-132z" />
    <glyph glyph-name="idieresis.smcp" horiz-adv-x="268" 
d="M27 652c-46 0 -82 36 -82 80c0 43 36 79 82 79c47 0 83 -36 83 -80s-36 -79 -83 -79zM237 652c-47 0 -82 36 -82 80c0 43 35 79 82 79c46 0 83 -36 83 -80s-37 -79 -83 -79zM68 0v582h132v-582h-132z" />
    <glyph glyph-name="i.loclTRK.smcp" horiz-adv-x="268" 
d="M134 650c-48 0 -83 36 -83 81c0 44 35 80 83 80c47 0 83 -36 83 -80c0 -45 -36 -81 -83 -81zM68 0v582h132v-582h-132z" />
    <glyph glyph-name="uni1ECB.smcp" horiz-adv-x="268" 
d="M68 0v582h132v-582h-132zM135 -69c48 0 83 -36 83 -81c0 -44 -35 -80 -83 -80c-47 0 -83 36 -83 80c0 45 36 81 83 81z" />
    <glyph glyph-name="igrave.smcp" horiz-adv-x="268" 
d="M72 647l-124 146l140 -1l108 -145h-124zM68 0v582h132v-582h-132z" />
    <glyph glyph-name="uni1EC9.smcp" horiz-adv-x="268" 
d="M92 647c40 29 65 58 64 81c0 13 -11 22 -29 22c-26 0 -48 -8 -80 -29l-27 60c25 25 76 55 143 55c59 0 99 -27 99 -84c0 -49 -44 -89 -84 -105h-86zM68 0v582h132v-582h-132z" />
    <glyph glyph-name="ij.smcp" horiz-adv-x="697" 
d="M68 0v582h132v-582h-132zM457 -7c-63 0 -129 21 -178 80l76 92c22 -25 53 -48 91 -49c34 0 66 21 66 89v377h129v-370c0 -134 -49 -219 -184 -219z" />
    <glyph glyph-name="imacron.smcp" horiz-adv-x="268" 
d="M-20 674v105h305v-105h-305zM68 0v582h132v-582h-132z" />
    <glyph glyph-name="iogonek.smcp" horiz-adv-x="268" 
d="M186 0c-51 -9 -81 -41 -81 -72c0 -25 15 -41 41 -41c23 0 29 3 39 7l7 -72c-20 -8 -47 -11 -73 -11c-70 0 -114 37 -114 90c0 32 21 72 63 100v581h132v-582h-14z" />
    <glyph glyph-name="itilde.smcp" horiz-adv-x="268" 
d="M215 646c-37 0 -64 15 -88 30c-18 11 -36 21 -54 21c-26 0 -44 -20 -57 -50l-78 33c21 67 61 116 120 116c41 0 65 -14 86 -27c18 -11 35 -23 55 -23c24 0 43 20 56 50l77 -26c-20 -73 -62 -124 -117 -124zM68 0v582h132v-582h-132z" />
    <glyph glyph-name="j.smcp" horiz-adv-x="429" 
d="M189 -7c-63 0 -129 21 -178 80l76 92c22 -25 53 -48 91 -49c34 0 66 21 66 89v377h129v-370c0 -134 -49 -219 -184 -219z" />
    <glyph glyph-name="uni0237.smcp" horiz-adv-x="429" 
d="M186 -7c-60 0 -126 20 -175 80l76 91c22 -26 53 -48 90 -49c34 0 67 23 67 91v376h129v-370c0 -131 -49 -219 -187 -219z" />
    <glyph glyph-name="uni006A0301.smcp" horiz-adv-x="429" 
d="M245 650l114 146l137 1l-124 -147h-127zM189 -7c-63 0 -129 21 -178 80l76 92c22 -25 53 -48 91 -49c34 0 66 21 66 89v377h129v-370c0 -134 -49 -219 -184 -219z" />
    <glyph glyph-name="jcircumflex.smcp" horiz-adv-x="429" 
d="M138 647l103 147h139l101 -147h-120l-50 75h-2l-50 -75h-121zM189 -7c-63 0 -129 21 -178 80l76 92c22 -25 53 -48 91 -49c34 0 66 21 66 89v377h129v-370c0 -134 -49 -219 -184 -219z" />
    <glyph glyph-name="k.smcp" horiz-adv-x="585" 
d="M67 0v582h130v-240l2 -1l198 241h164l-222 -256l232 -326h-161l-161 228l-52 -58v-170h-130z" />
    <glyph glyph-name="uni1E31.smcp" horiz-adv-x="585" 
d="M193 649l114 146l137 1l-124 -147h-127zM67 0v582h130v-240l2 -1l198 241h164l-222 -256l232 -326h-161l-161 228l-52 -58v-170h-130z" />
    <glyph glyph-name="kcommaaccent.smcp" horiz-adv-x="585" 
d="M67 0v582h130v-240l2 -1l198 241h164l-222 -256l232 -326h-161l-161 228l-52 -58v-170h-130zM217 -219l-27 74c39 11 55 25 55 55c0 13 -2 22 -7 38h113c4 -14 5 -27 5 -45c0 -78 -59 -117 -139 -122z" />
    <glyph glyph-name="kgreenlandic.smcp" horiz-adv-x="725" 
d="M67 0v582h130v-240l2 -1l198 241h164l-222 -256l232 -326h-161l-161 228l-52 -58v-170h-130zM555 366l63 216h93l-31 -216h-125z" />
    <glyph glyph-name="l.smcp" horiz-adv-x="488" 
d="M67 0v582h131v-466h265v-116h-396z" />
    <glyph glyph-name="lacute.smcp" horiz-adv-x="488" 
d="M124 649l114 146l137 1l-124 -147h-127zM67 0v582h131v-466h265v-116h-396z" />
    <glyph glyph-name="lcaron.smcp" horiz-adv-x="495" 
d="M266 453l31 206h125l-64 -206h-92zM67 0v582h131v-466h265v-116h-396z" />
    <glyph glyph-name="lcommaaccent.smcp" horiz-adv-x="488" 
d="M67 0v582h131v-466h265v-116h-396zM176 -219l-27 74c39 11 55 25 55 55c0 13 -2 22 -7 38h113c4 -14 5 -27 5 -45c0 -78 -59 -117 -139 -122z" />
    <glyph glyph-name="ldot.smcp" horiz-adv-x="488" 
d="M67 0v582h131v-466h265v-116h-396zM377 225c-46 0 -83 36 -83 81c0 44 37 80 83 80c44 0 81 -36 81 -80c0 -45 -37 -81 -81 -81z" />
    <glyph glyph-name="uni1E37.smcp" horiz-adv-x="488" 
d="M67 0v582h131v-466h265v-116h-396zM257 -68c48 0 83 -36 83 -81c0 -44 -35 -80 -83 -80c-47 0 -83 36 -83 80c0 45 36 81 83 81z" />
    <glyph glyph-name="uni1E39.smcp" horiz-adv-x="488" 
d="M78 675v105h305v-105h-305zM67 0v582h131v-466h265v-116h-396zM257 -68c48 0 83 -36 83 -81c0 -44 -35 -80 -83 -80c-47 0 -83 36 -83 80c0 45 36 81 83 81z" />
    <glyph glyph-name="uni1E3B.smcp" horiz-adv-x="488" 
d="M67 0v582h131v-466h265v-116h-396zM410 -212h-305v105h305v-105z" />
    <glyph glyph-name="lslash.smcp" horiz-adv-x="488" 
d="M198 116h265v-116h-396v208l-56 -24v98l56 24v276h131v-221l93 40v-99l-93 -39v-147z" />
    <glyph glyph-name="m.smcp" horiz-adv-x="765" 
d="M67 0v582h134l180 -315h2l180 315h135v-582h-130v347l-1 1l-142 -237h-84l-142 235h-2v-346h-130z" />
    <glyph glyph-name="uni1E43.smcp" horiz-adv-x="765" 
d="M67 0v582h134l180 -315h2l180 315h135v-582h-130v347l-1 1l-142 -237h-84l-142 235h-2v-346h-130zM378 -69c48 0 83 -36 83 -81c0 -44 -35 -80 -83 -80c-47 0 -83 36 -83 80c0 45 36 81 83 81z" />
    <glyph glyph-name="n.smcp" horiz-adv-x="649" 
d="M64 0v582h131l258 -371l2 2v369h130v-582h-135l-253 361l-3 -1v-360h-130z" />
    <glyph glyph-name="nacute.smcp" horiz-adv-x="649" 
d="M227 649l114 146l137 1l-124 -147h-127zM64 0v582h131l258 -371l2 2v369h130v-582h-135l-253 361l-3 -1v-360h-130z" />
    <glyph glyph-name="napostrophe.smcp" horiz-adv-x="814" 
d="M226 0v582h131l258 -371l2 2v369h130v-582h-135l-253 361l-3 -1v-360h-130zM147 581l-63 -216h-93l31 216h125z" />
    <glyph glyph-name="ncaron.smcp" horiz-adv-x="649" 
d="M264 645l-102 147h121l50 -75h2l50 75h120l-102 -147h-139zM64 0v582h131l258 -371l2 2v369h130v-582h-135l-253 361l-3 -1v-360h-130z" />
    <glyph glyph-name="ncommaaccent.smcp" horiz-adv-x="649" 
d="M64 0v582h131l258 -371l2 2v369h130v-582h-135l-253 361l-3 -1v-360h-130zM244 -220l-27 74c39 11 55 25 55 55c0 13 -2 22 -7 38h113c4 -14 5 -27 5 -45c0 -78 -59 -117 -139 -122z" />
    <glyph glyph-name="uni1E45.smcp" horiz-adv-x="649" 
d="M335 651c-48 0 -83 36 -83 81c0 44 35 80 83 80c47 0 83 -36 83 -80c0 -45 -36 -81 -83 -81zM64 0v582h131l258 -371l2 2v369h130v-582h-135l-253 361l-3 -1v-360h-130z" />
    <glyph glyph-name="uni1E47.smcp" horiz-adv-x="649" 
d="M64 0v582h131l258 -371l2 2v369h130v-582h-135l-253 361l-3 -1v-360h-130zM325 -69c48 0 83 -36 83 -81c0 -44 -35 -80 -83 -80c-47 0 -83 36 -83 80c0 45 36 81 83 81z" />
    <glyph glyph-name="eng.smcp" horiz-adv-x="649" 
d="M455 582h130v-582c0 -112 -63 -170 -178 -170c-28 0 -54 4 -82 11l10 101c19 -5 35 -7 50 -7c41 0 66 19 70 60l-259 365l-2 -1v-359h-130v582h130l259 -368l2 1v367z" />
    <glyph glyph-name="uni0272.smcp" horiz-adv-x="649" 
d="M455 582h130v-582h-135l-253 361l-3 -1v-360c0 -112 -58 -170 -163 -170c-24 0 -47 4 -72 11l9 101c16 -5 30 -8 42 -8c37 0 54 25 54 72v576h131l258 -371l2 2v369z" />
    <glyph glyph-name="uni1E49.smcp" horiz-adv-x="649" 
d="M64 0v582h131l258 -371l2 2v369h130v-582h-135l-253 361l-3 -1v-360h-130zM478 -213h-305v105h305v-105z" />
    <glyph glyph-name="ntilde.smcp" horiz-adv-x="649" 
d="M416 647c-37 0 -64 15 -88 30c-18 11 -36 21 -54 21c-26 0 -44 -20 -57 -50l-78 33c21 67 61 116 120 116c41 0 65 -14 86 -27c18 -11 35 -23 55 -23c24 0 43 20 56 50l77 -26c-20 -73 -62 -124 -117 -124zM64 0v582h131l258 -371l2 2v369h130v-582h-135l-253 361l-3 -1
v-360h-130z" />
    <glyph glyph-name="o.smcp" horiz-adv-x="694" 
d="M348 -8c-183 0 -310 125 -310 300c0 174 127 298 310 298c178 0 307 -120 307 -298c0 -179 -129 -300 -307 -300zM347 115c100 0 171 76 171 177c0 100 -71 175 -171 175c-101 0 -172 -77 -172 -175c0 -99 71 -177 172 -177z" />
    <glyph glyph-name="oacute.smcp" horiz-adv-x="694" 
d="M279 649l114 146l137 1l-124 -147h-127zM348 -8c-183 0 -310 125 -310 300c0 174 127 298 310 298c178 0 307 -120 307 -298c0 -179 -129 -300 -307 -300zM347 115c100 0 171 76 171 177c0 100 -71 175 -171 175c-101 0 -172 -77 -172 -175c0 -99 71 -177 172 -177z" />
    <glyph glyph-name="obreve.smcp" horiz-adv-x="694" 
d="M350 639c-95 0 -156 57 -163 153h99c3 -30 26 -57 64 -57c39 0 62 27 64 57h99c-7 -91 -63 -153 -163 -153zM348 -8c-183 0 -310 125 -310 300c0 174 127 298 310 298c178 0 307 -120 307 -298c0 -179 -129 -300 -307 -300zM347 115c100 0 171 76 171 177
c0 100 -71 175 -171 175c-101 0 -172 -77 -172 -175c0 -99 71 -177 172 -177z" />
    <glyph glyph-name="uni01D2.smcp" horiz-adv-x="694" 
d="M280 645l-102 147h121l50 -75h2l50 75h120l-102 -147h-139zM348 -8c-183 0 -310 125 -310 300c0 174 127 298 310 298c178 0 307 -120 307 -298c0 -179 -129 -300 -307 -300zM347 115c100 0 171 76 171 177c0 100 -71 175 -171 175c-101 0 -172 -77 -172 -175
c0 -99 71 -177 172 -177z" />
    <glyph glyph-name="ocircumflex.smcp" horiz-adv-x="694" 
d="M178 647l103 147h139l101 -147h-120l-50 75h-2l-50 -75h-121zM348 -8c-183 0 -310 125 -310 300c0 174 127 298 310 298c178 0 307 -120 307 -298c0 -179 -129 -300 -307 -300zM347 115c100 0 171 76 171 177c0 100 -71 175 -171 175c-101 0 -172 -77 -172 -175
c0 -99 71 -177 172 -177z" />
    <glyph glyph-name="uni1ED1.smcp" horiz-adv-x="694" 
d="M488 744l80 147h134l-120 -147h-94zM178 647l103 147h139l101 -147h-120l-50 75h-2l-50 -75h-121zM348 -8c-183 0 -310 125 -310 300c0 174 127 298 310 298c178 0 307 -120 307 -298c0 -179 -129 -300 -307 -300zM347 115c100 0 171 76 171 177c0 100 -71 175 -171 175
c-101 0 -172 -77 -172 -175c0 -99 71 -177 172 -177z" />
    <glyph glyph-name="uni1ED9.smcp" horiz-adv-x="694" 
d="M178 647l103 147h139l101 -147h-120l-50 75h-2l-50 -75h-121zM348 -8c-183 0 -310 125 -310 300c0 174 127 298 310 298c178 0 307 -120 307 -298c0 -179 -129 -300 -307 -300zM347 115c100 0 171 76 171 177c0 100 -71 175 -171 175c-101 0 -172 -77 -172 -175
c0 -99 71 -177 172 -177zM348 -69c48 0 83 -36 83 -81c0 -44 -35 -80 -83 -80c-47 0 -83 36 -83 80c0 45 36 81 83 81z" />
    <glyph glyph-name="uni1ED3.smcp" horiz-adv-x="694" 
d="M518 744l-120 147h134l79 -147h-93zM178 647l103 147h139l101 -147h-120l-50 75h-2l-50 -75h-121zM348 -8c-183 0 -310 125 -310 300c0 174 127 298 310 298c178 0 307 -120 307 -298c0 -179 -129 -300 -307 -300zM347 115c100 0 171 76 171 177c0 100 -71 175 -171 175
c-101 0 -172 -77 -172 -175c0 -99 71 -177 172 -177z" />
    <glyph glyph-name="uni1ED5.smcp" horiz-adv-x="694" 
d="M501 747c37 27 60 54 60 76c0 12 -11 20 -28 20c-24 0 -45 -7 -74 -27l-26 56c24 24 71 52 134 52c55 0 93 -26 93 -79c0 -46 -41 -83 -79 -98h-80zM178 647l103 147h139l101 -147h-120l-50 75h-2l-50 -75h-121zM348 -8c-183 0 -310 125 -310 300c0 174 127 298 310 298
c178 0 307 -120 307 -298c0 -179 -129 -300 -307 -300zM347 115c100 0 171 76 171 177c0 100 -71 175 -171 175c-101 0 -172 -77 -172 -175c0 -99 71 -177 172 -177z" />
    <glyph glyph-name="uni1ED7.smcp" horiz-adv-x="694" 
d="M243 828l-77 33c21 60 55 106 114 106c25 0 48 -7 78 -23c31 -19 41 -22 51 -22c25 0 41 18 54 48l78 -25c-20 -63 -59 -115 -117 -115c-28 0 -54 13 -76 26s-39 23 -57 22c-17 -2 -36 -20 -48 -50zM179 647l103 147h139l101 -147h-120l-50 75h-2l-50 -75h-121zM348 -8
c-183 0 -310 125 -310 300c0 174 127 298 310 298c178 0 307 -120 307 -298c0 -179 -129 -300 -307 -300zM347 115c100 0 171 76 171 177c0 100 -71 175 -171 175c-101 0 -172 -77 -172 -175c0 -99 71 -177 172 -177z" />
    <glyph glyph-name="odieresis.smcp" horiz-adv-x="694" 
d="M244 653c-46 0 -82 36 -82 80c0 43 36 79 82 79c47 0 83 -36 83 -80s-36 -79 -83 -79zM454 653c-47 0 -82 36 -82 80c0 43 35 79 82 79c46 0 83 -36 83 -80s-37 -79 -83 -79zM348 -8c-183 0 -310 125 -310 300c0 174 127 298 310 298c178 0 307 -120 307 -298
c0 -179 -129 -300 -307 -300zM347 115c100 0 171 76 171 177c0 100 -71 175 -171 175c-101 0 -172 -77 -172 -175c0 -99 71 -177 172 -177z" />
    <glyph glyph-name="uni1ECD.smcp" horiz-adv-x="694" 
d="M348 -8c-183 0 -310 125 -310 300c0 174 127 298 310 298c178 0 307 -120 307 -298c0 -179 -129 -300 -307 -300zM347 115c100 0 171 76 171 177c0 100 -71 175 -171 175c-101 0 -172 -77 -172 -175c0 -99 71 -177 172 -177zM348 -69c48 0 83 -36 83 -81
c0 -44 -35 -80 -83 -80c-47 0 -83 36 -83 80c0 45 36 81 83 81z" />
    <glyph glyph-name="ograve.smcp" horiz-adv-x="694" 
d="M305 647l-124 146l140 -1l108 -145h-124zM348 -8c-183 0 -310 125 -310 300c0 174 127 298 310 298c178 0 307 -120 307 -298c0 -179 -129 -300 -307 -300zM347 115c100 0 171 76 171 177c0 100 -71 175 -171 175c-101 0 -172 -77 -172 -175c0 -99 71 -177 172 -177z" />
    <glyph glyph-name="uni1ECF.smcp" horiz-adv-x="694" 
d="M309 648c40 29 65 58 64 81c0 13 -11 22 -29 22c-26 0 -48 -8 -80 -29l-27 60c25 25 76 55 143 55c59 0 99 -27 99 -84c0 -49 -44 -89 -84 -105h-86zM348 -8c-183 0 -310 125 -310 300c0 174 127 298 310 298c178 0 307 -120 307 -298c0 -179 -129 -300 -307 -300z
M347 115c100 0 171 76 171 177c0 100 -71 175 -171 175c-101 0 -172 -77 -172 -175c0 -99 71 -177 172 -177z" />
    <glyph glyph-name="ohorn.smcp" horiz-adv-x="744" 
d="M599 669h122v-73c0 -84 -34 -142 -94 -170c18 -39 28 -84 28 -134c0 -179 -129 -300 -307 -300c-183 0 -310 125 -310 300c0 174 127 298 310 298c94 0 174 -33 228 -91c22 21 23 56 23 99v71zM347 115c100 0 171 76 171 177c0 100 -71 175 -171 175
c-101 0 -172 -77 -172 -175c0 -99 71 -177 172 -177z" />
    <glyph glyph-name="uni1EDB.smcp" horiz-adv-x="744" 
d="M530 796l-124 -147h-127l114 146zM599 669h122v-73c0 -84 -34 -142 -94 -170c18 -39 28 -84 28 -134c0 -179 -129 -300 -307 -300c-183 0 -310 125 -310 300c0 174 127 298 310 298c94 0 174 -33 228 -91c22 21 23 56 23 99v71zM347 115c100 0 171 76 171 177
c0 100 -71 175 -171 175c-101 0 -172 -77 -172 -175c0 -99 71 -177 172 -177z" />
    <glyph glyph-name="uni1EE3.smcp" horiz-adv-x="744" 
d="M599 669h122v-73c0 -84 -34 -142 -94 -170c18 -39 28 -84 28 -134c0 -179 -129 -300 -307 -300c-183 0 -310 125 -310 300c0 174 127 298 310 298c94 0 174 -33 228 -91c22 21 23 56 23 99v71zM347 115c100 0 171 76 171 177c0 100 -71 175 -171 175
c-101 0 -172 -77 -172 -175c0 -99 71 -177 172 -177zM348 -69c48 0 83 -36 83 -81c0 -44 -35 -80 -83 -80c-47 0 -83 36 -83 80c0 45 36 81 83 81z" />
    <glyph glyph-name="uni1EDD.smcp" horiz-adv-x="744" 
d="M429 647h-124l-124 146l140 -1zM599 669h122v-73c0 -84 -34 -142 -94 -170c18 -39 28 -84 28 -134c0 -179 -129 -300 -307 -300c-183 0 -310 125 -310 300c0 174 127 298 310 298c94 0 174 -33 228 -91c22 21 23 56 23 99v71zM347 115c100 0 171 76 171 177
c0 100 -71 175 -171 175c-101 0 -172 -77 -172 -175c0 -99 71 -177 172 -177z" />
    <glyph glyph-name="uni1EDF.smcp" horiz-adv-x="744" 
d="M344 751c-26 0 -48 -8 -80 -29l-27 60c25 25 76 55 143 55c59 0 99 -27 99 -84c0 -49 -44 -89 -84 -105h-86c40 29 65 58 64 81c0 13 -11 22 -29 22zM599 669h122v-73c0 -84 -34 -142 -94 -170c18 -39 28 -84 28 -134c0 -179 -129 -300 -307 -300
c-183 0 -310 125 -310 300c0 174 127 298 310 298c94 0 174 -33 228 -91c22 21 23 56 23 99v71zM347 115c100 0 171 76 171 177c0 100 -71 175 -171 175c-101 0 -172 -77 -172 -175c0 -99 71 -177 172 -177z" />
    <glyph glyph-name="uni1EE1.smcp" horiz-adv-x="744" 
d="M290 698c-26 0 -44 -20 -57 -50l-78 33c21 67 61 116 120 116c41 0 65 -14 86 -27c18 -11 35 -23 55 -23c24 0 43 20 56 50l77 -26c-20 -73 -62 -124 -117 -124c-37 0 -64 15 -88 30c-18 11 -36 21 -54 21zM599 669h122v-73c0 -84 -34 -142 -94 -170
c18 -39 28 -84 28 -134c0 -179 -129 -300 -307 -300c-183 0 -310 125 -310 300c0 174 127 298 310 298c94 0 174 -33 228 -91c22 21 23 56 23 99v71zM347 115c100 0 171 76 171 177c0 100 -71 175 -171 175c-101 0 -172 -77 -172 -175c0 -99 71 -177 172 -177z" />
    <glyph glyph-name="ohungarumlaut.smcp" horiz-adv-x="694" 
d="M188 652l113 146l132 1l-124 -147h-121zM393 652l112 146l131 1l-123 -147h-120zM348 -8c-183 0 -310 125 -310 300c0 174 127 298 310 298c178 0 307 -120 307 -298c0 -179 -129 -300 -307 -300zM347 115c100 0 171 76 171 177c0 100 -71 175 -171 175
c-101 0 -172 -77 -172 -175c0 -99 71 -177 172 -177z" />
    <glyph glyph-name="omacron.smcp" horiz-adv-x="694" 
d="M197 675v105h305v-105h-305zM348 -8c-183 0 -310 125 -310 300c0 174 127 298 310 298c178 0 307 -120 307 -298c0 -179 -129 -300 -307 -300zM347 115c100 0 171 76 171 177c0 100 -71 175 -171 175c-101 0 -172 -77 -172 -175c0 -99 71 -177 172 -177z" />
    <glyph glyph-name="uni01EB.smcp" horiz-adv-x="694" 
d="M390 -6c-37 -13 -59 -40 -59 -66c0 -25 15 -41 41 -41c23 0 29 3 39 7l7 -72c-20 -8 -47 -11 -73 -11c-70 0 -114 37 -114 90c0 30 18 67 55 94l-1 2c-148 25 -247 141 -247 295c0 174 127 298 310 298c178 0 307 -120 307 -298c0 -164 -109 -280 -265 -298zM175 292
c0 -99 71 -177 172 -177c100 0 171 76 171 177c0 100 -71 175 -171 175c-101 0 -172 -77 -172 -175z" />
    <glyph glyph-name="oslash.smcp" horiz-adv-x="694" 
d="M662 554l-69 -73c39 -50 62 -114 62 -189c0 -179 -129 -300 -307 -300c-66 0 -124 16 -172 45l-65 -69l-60 56l61 65c-47 52 -74 122 -74 203c0 174 127 298 310 298c71 0 134 -19 185 -54l69 74zM175 292c0 -39 11 -75 31 -104l236 252c-26 17 -59 27 -95 27
c-101 0 -172 -77 -172 -175zM518 292c0 32 -7 62 -21 87l-230 -245c23 -12 50 -19 80 -19c100 0 171 76 171 177z" />
    <glyph glyph-name="oslashacute.smcp" horiz-adv-x="694" 
d="M530 796l-124 -147h-127l114 146zM662 554l-69 -73c39 -50 62 -114 62 -189c0 -179 -129 -300 -307 -300c-66 0 -124 16 -172 45l-65 -69l-60 56l61 65c-47 52 -74 122 -74 203c0 174 127 298 310 298c71 0 134 -19 185 -54l69 74zM175 292c0 -39 11 -75 31 -104l236 252
c-26 17 -59 27 -95 27c-101 0 -172 -77 -172 -175zM518 292c0 32 -7 62 -21 87l-230 -245c23 -12 50 -19 80 -19c100 0 171 76 171 177z" />
    <glyph glyph-name="otilde.smcp" horiz-adv-x="694" 
d="M432 647c-37 0 -64 15 -88 30c-18 11 -36 21 -54 21c-26 0 -44 -20 -57 -50l-78 33c21 67 61 116 120 116c41 0 65 -14 86 -27c18 -11 35 -23 55 -23c24 0 43 20 56 50l77 -26c-20 -73 -62 -124 -117 -124zM348 -8c-183 0 -310 125 -310 300c0 174 127 298 310 298
c178 0 307 -120 307 -298c0 -179 -129 -300 -307 -300zM347 115c100 0 171 76 171 177c0 100 -71 175 -171 175c-101 0 -172 -77 -172 -175c0 -99 71 -177 172 -177z" />
    <glyph glyph-name="oe.smcp" horiz-adv-x="825" 
d="M503 116h285v-116h-440c-184 0 -310 125 -310 292c0 165 126 290 310 290h423v-116h-268v-126h217v-111h-217v-113zM348 119h26v344h-26c-99 -1 -172 -75 -172 -171c0 -97 74 -174 172 -173z" />
    <glyph glyph-name="p.smcp" horiz-adv-x="545" 
d="M67 0v582h233c152 0 218 -85 218 -198c0 -132 -91 -195 -229 -195h-92v-189h-130zM197 304h90c65 0 94 30 94 81c0 48 -25 81 -90 81h-94v-162z" />
    <glyph glyph-name="thorn.smcp" horiz-adv-x="561" 
d="M67 0v582h130v-97h121c150 0 216 -86 216 -200c0 -127 -91 -190 -227 -190h-110v-95h-130zM197 209h104c67 0 97 32 97 79s-29 82 -93 82h-108v-161z" />
    <glyph glyph-name="q.smcp" horiz-adv-x="694" 
d="M655 292c0 -69 -19 -130 -54 -178l51 -46l-71 -89l-63 57c-48 -28 -106 -44 -170 -44c-183 0 -310 125 -310 300c0 174 127 298 310 298c178 0 307 -120 307 -298zM176 292c0 -99 70 -177 172 -177c28 0 53 6 76 17l-50 45l61 74l60 -54c15 27 24 59 24 95
c0 100 -72 175 -171 175c-102 0 -172 -77 -172 -175z" />
    <glyph glyph-name="r.smcp" horiz-adv-x="572" 
d="M67 0v582h239c152 0 219 -85 219 -199c0 -88 -42 -148 -124 -177l149 -206h-156l-134 191h-63v-191h-130zM197 305h93c67 0 97 30 97 82c0 46 -28 79 -93 79h-97v-161z" />
    <glyph glyph-name="racute.smcp" horiz-adv-x="572" 
d="M181 649l114 146l137 1l-124 -147h-127zM67 0v582h239c152 0 219 -85 219 -199c0 -88 -42 -148 -124 -177l149 -206h-156l-134 191h-63v-191h-130zM197 305h93c67 0 97 30 97 82c0 46 -28 79 -93 79h-97v-161z" />
    <glyph glyph-name="rcaron.smcp" horiz-adv-x="572" 
d="M218 645l-102 147h121l50 -75h2l50 75h120l-102 -147h-139zM67 0v582h239c152 0 219 -85 219 -199c0 -88 -42 -148 -124 -177l149 -206h-156l-134 191h-63v-191h-130zM197 305h93c67 0 97 30 97 82c0 46 -28 79 -93 79h-97v-161z" />
    <glyph glyph-name="rcommaaccent.smcp" horiz-adv-x="572" 
d="M67 0v582h239c152 0 219 -85 219 -199c0 -88 -42 -148 -124 -177l149 -206h-156l-134 191h-63v-191h-130zM197 305h93c67 0 97 30 97 82c0 46 -28 79 -93 79h-97v-161zM210 -219l-27 74c39 11 55 25 55 55c0 13 -2 22 -7 38h113c4 -14 5 -27 5 -45
c0 -78 -59 -117 -139 -122z" />
    <glyph glyph-name="uni1E5B.smcp" horiz-adv-x="572" 
d="M67 0v582h239c152 0 219 -85 219 -199c0 -88 -42 -148 -124 -177l149 -206h-156l-134 191h-63v-191h-130zM197 305h93c67 0 97 30 97 82c0 46 -28 79 -93 79h-97v-161zM291 -68c48 0 83 -36 83 -81c0 -44 -35 -80 -83 -80c-47 0 -83 36 -83 80c0 45 36 81 83 81z" />
    <glyph glyph-name="uni1E5D.smcp" horiz-adv-x="572" 
d="M135 675v105h305v-105h-305zM67 0v582h239c152 0 219 -85 219 -199c0 -88 -42 -148 -124 -177l149 -206h-156l-134 191h-63v-191h-130zM197 305h93c67 0 97 30 97 82c0 46 -28 79 -93 79h-97v-161zM291 -68c48 0 83 -36 83 -81c0 -44 -35 -80 -83 -80
c-47 0 -83 36 -83 80c0 45 36 81 83 81z" />
    <glyph glyph-name="uni1E5F.smcp" horiz-adv-x="572" 
d="M67 0v582h239c152 0 219 -85 219 -199c0 -88 -42 -148 -124 -177l149 -206h-156l-134 191h-63v-191h-130zM197 305h93c67 0 97 30 97 82c0 46 -28 79 -93 79h-97v-161zM444 -212h-305v105h305v-105z" />
    <glyph glyph-name="s.smcp" horiz-adv-x="504" 
d="M252 -8c-79 0 -159 30 -224 93l74 92c47 -48 107 -69 154 -70c55 0 84 23 84 54c1 36 -31 50 -103 74c-94 29 -188 71 -188 186c0 99 91 168 199 169c76 0 150 -27 209 -75l-72 -93c-52 39 -97 54 -136 54c-38 0 -67 -17 -68 -49c0 -34 31 -49 101 -74
c106 -38 191 -67 190 -178c0 -134 -118 -183 -220 -183z" />
    <glyph glyph-name="sacute.smcp" horiz-adv-x="504" 
d="M177 649l114 146l137 1l-124 -147h-127zM252 -8c-79 0 -159 30 -224 93l74 92c47 -48 107 -69 154 -70c55 0 84 23 84 54c1 36 -31 50 -103 74c-94 29 -188 71 -188 186c0 99 91 168 199 169c76 0 150 -27 209 -75l-72 -93c-52 39 -97 54 -136 54c-38 0 -67 -17 -68 -49
c0 -34 31 -49 101 -74c106 -38 191 -67 190 -178c0 -134 -118 -183 -220 -183z" />
    <glyph glyph-name="scaron.smcp" horiz-adv-x="504" 
d="M189 645l-102 147h121l50 -75h2l50 75h120l-102 -147h-139zM252 -8c-79 0 -159 30 -224 93l74 92c47 -48 107 -69 154 -70c55 0 84 23 84 54c1 36 -31 50 -103 74c-94 29 -188 71 -188 186c0 99 91 168 199 169c76 0 150 -27 209 -75l-72 -93c-52 39 -97 54 -136 54
c-38 0 -67 -17 -68 -49c0 -34 31 -49 101 -74c106 -38 191 -67 190 -178c0 -134 -118 -183 -220 -183z" />
    <glyph glyph-name="scedilla.smcp" horiz-adv-x="504" 
d="M282 353c106 -38 191 -67 190 -178c0 -127 -106 -178 -203 -183l-11 -20v-2c65 -2 98 -31 98 -81c0 -45 -39 -79 -128 -79c-29 0 -46 3 -61 6v59c12 -4 27 -7 48 -7c22 0 48 7 48 28c0 18 -29 32 -79 32v37l15 32c-61 10 -121 39 -171 88l74 92c47 -48 107 -69 154 -70
c55 0 84 23 84 54c1 36 -31 50 -103 74c-94 29 -188 71 -188 186c0 99 91 168 199 169c76 0 150 -27 209 -75l-72 -93c-52 39 -97 54 -136 54c-38 0 -67 -17 -68 -49c0 -34 31 -49 101 -74z" />
    <glyph glyph-name="scircumflex.smcp" horiz-adv-x="504" 
d="M87 647l103 147h139l101 -147h-120l-50 75h-2l-50 -75h-121zM252 -8c-79 0 -159 30 -224 93l74 92c47 -48 107 -69 154 -70c55 0 84 23 84 54c1 36 -31 50 -103 74c-94 29 -188 71 -188 186c0 99 91 168 199 169c76 0 150 -27 209 -75l-72 -93c-52 39 -97 54 -136 54
c-38 0 -67 -17 -68 -49c0 -34 31 -49 101 -74c106 -38 191 -67 190 -178c0 -134 -118 -183 -220 -183z" />
    <glyph glyph-name="scommaaccent.smcp" horiz-adv-x="504" 
d="M252 -8c-79 0 -159 30 -224 93l74 92c47 -48 107 -69 154 -70c55 0 84 23 84 54c1 36 -31 50 -103 74c-94 29 -188 71 -188 186c0 99 91 168 199 169c76 0 150 -27 209 -75l-72 -93c-52 39 -97 54 -136 54c-38 0 -67 -17 -68 -49c0 -34 31 -49 101 -74
c106 -38 191 -67 190 -178c0 -134 -118 -183 -220 -183zM181 -219l-27 74c39 11 55 25 55 55c0 13 -2 22 -7 38h113c4 -14 5 -27 5 -45c0 -78 -59 -117 -139 -122z" />
    <glyph glyph-name="uni1E61.smcp" horiz-adv-x="504" 
d="M260 651c-48 0 -83 36 -83 81c0 44 35 80 83 80c47 0 83 -36 83 -80c0 -45 -36 -81 -83 -81zM252 -8c-79 0 -159 30 -224 93l74 92c47 -48 107 -69 154 -70c55 0 84 23 84 54c1 36 -31 50 -103 74c-94 29 -188 71 -188 186c0 99 91 168 199 169c76 0 150 -27 209 -75
l-72 -93c-52 39 -97 54 -136 54c-38 0 -67 -17 -68 -49c0 -34 31 -49 101 -74c106 -38 191 -67 190 -178c0 -134 -118 -183 -220 -183z" />
    <glyph glyph-name="uni1E63.smcp" horiz-adv-x="504" 
d="M252 -8c-79 0 -159 30 -224 93l74 92c47 -48 107 -69 154 -70c55 0 84 23 84 54c1 36 -31 50 -103 74c-94 29 -188 71 -188 186c0 99 91 168 199 169c76 0 150 -27 209 -75l-72 -93c-52 39 -97 54 -136 54c-38 0 -67 -17 -68 -49c0 -34 31 -49 101 -74
c106 -38 191 -67 190 -178c0 -134 -118 -183 -220 -183zM262 -68c48 0 83 -36 83 -81c0 -44 -35 -80 -83 -80c-47 0 -83 36 -83 80c0 45 36 81 83 81z" />
    <glyph glyph-name="germandbls.smcp" horiz-adv-x="661" 
d="M473 350c98 -36 173 -67 173 -175c-1 -134 -114 -183 -200 -183c-52 0 -116 22 -174 65l50 111c45 -43 97 -60 133 -61c41 0 58 22 58 53c0 34 -31 48 -99 73c-33 11 -67 23 -96 39l84 189l-1 2c-32 5 -65 8 -101 8c-66 0 -109 -30 -109 -106v-366h-131v364
c0 155 82 227 237 227c103 0 193 -16 268 -41z" />
    <glyph glyph-name="t.smcp" horiz-adv-x="501" 
d="M185 0v465h-163v117h456v-117h-163v-465h-130z" />
    <glyph glyph-name="tbar.smcp" horiz-adv-x="501" 
d="M478 465h-163v-155h91v-95h-91v-215h-130v215h-89v95h89v155h-163v117h456v-117z" />
    <glyph glyph-name="tcaron.smcp" horiz-adv-x="501" 
d="M179 645l-102 147h121l50 -75h2l50 75h120l-102 -147h-139zM185 0v465h-163v117h456v-117h-163v-465h-130z" />
    <glyph glyph-name="uni0163.smcp" horiz-adv-x="501" 
d="M263 0l-14 -28v-2c65 -2 98 -31 98 -81c0 -45 -39 -79 -128 -79c-29 0 -46 3 -61 6v59c12 -4 27 -7 48 -7c22 0 48 7 48 28c0 18 -29 32 -79 32v37l17 35h-7v465h-163v117h456v-117h-163v-465h-52z" />
    <glyph glyph-name="uni021B.smcp" horiz-adv-x="501" 
d="M185 0v465h-163v117h456v-117h-163v-465h-130zM172 -219l-27 74c39 11 55 25 55 55c0 13 -2 22 -7 38h113c4 -14 5 -27 5 -45c0 -78 -59 -117 -139 -122z" />
    <glyph glyph-name="uni1E97.smcp" horiz-adv-x="501" 
d="M143 653c-46 0 -82 36 -82 80c0 43 36 79 82 79c47 0 83 -36 83 -80s-36 -79 -83 -79zM353 653c-47 0 -82 36 -82 80c0 43 35 79 82 79c46 0 83 -36 83 -80s-37 -79 -83 -79zM185 0v465h-163v117h456v-117h-163v-465h-130z" />
    <glyph glyph-name="uni1E6D.smcp" horiz-adv-x="501" 
d="M185 0v465h-163v117h456v-117h-163v-465h-130zM253 -68c48 0 83 -36 83 -81c0 -44 -35 -80 -83 -80c-47 0 -83 36 -83 80c0 45 36 81 83 81z" />
    <glyph glyph-name="uni1E6F.smcp" horiz-adv-x="501" 
d="M185 0v465h-163v117h456v-117h-163v-465h-130zM406 -212h-305v105h305v-105z" />
    <glyph glyph-name="u.smcp" horiz-adv-x="614" 
d="M306 -8c-147 0 -246 89 -246 251v339h130v-332c0 -74 41 -134 116 -134c67 0 117 49 117 134v332h131v-339c0 -153 -91 -251 -248 -251z" />
    <glyph glyph-name="uacute.smcp" horiz-adv-x="614" 
d="M228 649l114 146l137 1l-124 -147h-127zM306 -8c-147 0 -246 89 -246 251v339h130v-332c0 -74 41 -134 116 -134c67 0 117 49 117 134v332h131v-339c0 -153 -91 -251 -248 -251z" />
    <glyph glyph-name="ubreve.smcp" horiz-adv-x="614" 
d="M307 639c-95 0 -156 57 -163 153h99c3 -30 26 -57 64 -57c39 0 62 27 64 57h99c-7 -91 -63 -153 -163 -153zM306 -8c-147 0 -246 89 -246 251v339h130v-332c0 -74 41 -134 116 -134c67 0 117 49 117 134v332h131v-339c0 -153 -91 -251 -248 -251z" />
    <glyph glyph-name="uni01D4.smcp" horiz-adv-x="614" 
d="M237 645l-102 147h121l50 -75h2l50 75h120l-102 -147h-139zM306 -8c-147 0 -246 89 -246 251v339h130v-332c0 -74 41 -134 116 -134c67 0 117 49 117 134v332h131v-339c0 -153 -91 -251 -248 -251z" />
    <glyph glyph-name="ucircumflex.smcp" horiz-adv-x="614" 
d="M135 647l103 147h139l101 -147h-120l-50 75h-2l-50 -75h-121zM306 -8c-147 0 -246 89 -246 251v339h130v-332c0 -74 41 -134 116 -134c67 0 117 49 117 134v332h131v-339c0 -153 -91 -251 -248 -251z" />
    <glyph glyph-name="udieresis.smcp" horiz-adv-x="614" 
d="M201 653c-46 0 -82 36 -82 80c0 43 36 79 82 79c47 0 83 -36 83 -80s-36 -79 -83 -79zM411 653c-47 0 -82 36 -82 80c0 43 35 79 82 79c46 0 83 -36 83 -80s-37 -79 -83 -79zM306 -8c-147 0 -246 89 -246 251v339h130v-332c0 -74 41 -134 116 -134c67 0 117 49 117 134
v332h131v-339c0 -153 -91 -251 -248 -251z" />
    <glyph glyph-name="uni01D8.smcp" horiz-adv-x="614" 
d="M268 791l79 147h135l-121 -147h-93zM208 644c-42 0 -72 30 -72 68c0 37 30 68 72 68c41 0 72 -31 72 -68c0 -38 -31 -68 -72 -68zM415 644c-42 0 -72 30 -72 68c0 37 30 68 72 68c41 0 72 -31 72 -68c0 -38 -31 -68 -72 -68zM306 -8c-147 0 -246 89 -246 251v339h130
v-332c0 -74 41 -134 116 -134c67 0 117 49 117 134v332h131v-339c0 -153 -91 -251 -248 -251z" />
    <glyph glyph-name="uni01DA.smcp" horiz-adv-x="614" 
d="M242 802l-104 135h121l51 -68h2l52 68h121l-104 -135h-139zM208 643c-42 0 -72 30 -72 68c0 37 30 68 72 68c41 0 72 -31 72 -68c0 -38 -31 -68 -72 -68zM415 643c-42 0 -72 30 -72 68c0 37 30 68 72 68c41 0 72 -31 72 -68c0 -38 -31 -68 -72 -68zM306 -8
c-147 0 -246 89 -246 251v339h130v-332c0 -74 41 -134 116 -134c67 0 117 49 117 134v332h131v-339c0 -153 -91 -251 -248 -251z" />
    <glyph glyph-name="uni01DC.smcp" horiz-adv-x="614" 
d="M268 791l-121 147h135l79 -147h-93zM208 643c-42 0 -72 30 -72 68c0 37 30 68 72 68c41 0 72 -31 72 -68c0 -38 -31 -68 -72 -68zM415 643c-42 0 -72 30 -72 68c0 37 30 68 72 68c41 0 72 -31 72 -68c0 -38 -31 -68 -72 -68zM306 -8c-147 0 -246 89 -246 251v339h130
v-332c0 -74 41 -134 116 -134c67 0 117 49 117 134v332h131v-339c0 -153 -91 -251 -248 -251z" />
    <glyph glyph-name="uni01D6.smcp" horiz-adv-x="614" 
d="M158 817v81h305v-81h-305zM208 644c-42 0 -72 30 -72 68c0 37 30 68 72 68c41 0 72 -31 72 -68c0 -38 -31 -68 -72 -68zM415 644c-42 0 -72 30 -72 68c0 37 30 68 72 68c41 0 72 -31 72 -68c0 -38 -31 -68 -72 -68zM306 -8c-147 0 -246 89 -246 251v339h130v-332
c0 -74 41 -134 116 -134c67 0 117 49 117 134v332h131v-339c0 -153 -91 -251 -248 -251z" />
    <glyph glyph-name="uni1EE5.smcp" horiz-adv-x="614" 
d="M306 -8c-147 0 -246 89 -246 251v339h130v-332c0 -74 41 -134 116 -134c67 0 117 49 117 134v332h131v-339c0 -153 -91 -251 -248 -251zM306 -69c48 0 83 -36 83 -81c0 -44 -35 -80 -83 -80c-47 0 -83 36 -83 80c0 45 36 81 83 81z" />
    <glyph glyph-name="ugrave.smcp" horiz-adv-x="614" 
d="M256 647l-124 146l140 -1l108 -145h-124zM306 -8c-147 0 -246 89 -246 251v339h130v-332c0 -74 41 -134 116 -134c67 0 117 49 117 134v332h131v-339c0 -153 -91 -251 -248 -251z" />
    <glyph glyph-name="uni1EE7.smcp" horiz-adv-x="614" 
d="M266 648c40 29 65 58 64 81c0 13 -11 22 -29 22c-26 0 -48 -8 -80 -29l-27 60c25 25 76 55 143 55c59 0 99 -27 99 -84c0 -49 -44 -89 -84 -105h-86zM306 -8c-147 0 -246 89 -246 251v339h130v-332c0 -74 41 -134 116 -134c67 0 117 49 117 134v332h131v-339
c0 -153 -91 -251 -248 -251z" />
    <glyph glyph-name="uhorn.smcp" horiz-adv-x="735" 
d="M613 662h122v-73c0 -118 -66 -185 -181 -187v-159c0 -153 -91 -251 -248 -251c-147 0 -246 89 -246 251v339h130v-332c0 -74 41 -134 116 -134c67 0 117 49 117 134v332h131v-107c57 12 59 56 59 116v71z" />
    <glyph glyph-name="uni1EE9.smcp" horiz-adv-x="735" 
d="M479 796l-124 -147h-127l114 146zM613 662h122v-73c0 -118 -66 -185 -181 -187v-159c0 -153 -91 -251 -248 -251c-147 0 -246 89 -246 251v339h130v-332c0 -74 41 -134 116 -134c67 0 117 49 117 134v332h131v-107c57 12 59 56 59 116v71z" />
    </font>
</defs>
</svg>
